<?xml version="1.0" encoding="UTF-8"?>
<svg xmlns="http://www.w3.org/2000/svg" xmlns:xlink="http://www.w3.org/1999/xlink" version="1.2" >
<font id="A1 Serif Bold">
<font-face  font-family="A1 Serif" units-per-em="2048" ascent="1536" descent="-512" font-style="normal" font-weight="700" font-stretch="normal" cap-height="1475" x-height="999" underline-position="-295" underline-thickness="254" />
<missing-glyph  horiz-adv-x="573" d="M57 0 L57 1475 L516 1475 L516 0 L57 0 Z M459 57 L459 1418 L114 1418 L114 57 L459 57 Z " />
<glyph glyph-name="space" unicode="&#x20;" horiz-adv-x="573" d="" />
<glyph glyph-name="exclam" unicode="&#x21;" horiz-adv-x="696" d="M209 0 L209 294 L486 294 L486 0 L209 0 Z M229 456 L195 1475 L498 1475 L464 456 L229 456 Z " />
<glyph glyph-name="quotedbl" unicode="&#x22;" horiz-adv-x="662" d="M89 893 L89 1475 L278 1475 L278 893 L89 893 Z M385 893 L385 1475 L574 1475 L574 893 L385 893 Z " />
<glyph glyph-name="numbersign" unicode="&#x23;" horiz-adv-x="1147" d="M200 427 L47 427 L74 621 L227 621 L257 829 L104 829 L131 1023 L284 1023 L347 1471 L567 1471 L504 1023 L727 1023 L790 1471 L1010 1471 L947 1023 L1100 1023 L1073 829 L920 829 L890 621 L1043 621 L1016 427 L863 427 L803 0 L583 0 L643 427 L420 427 L360 0 L140 0 L200 427 Z M447 621 L671 621 L700 829 L476 829 L447 621 Z " />
<glyph glyph-name="dollar" unicode="&#x24;" horiz-adv-x="1147" d="M49 0 L49 474 L283 474 L283 441 Q283 268 493 214 L493 663 Q388 696 344 712 Q184 766 120 874 Q71 957 71 1078 Q71 1337 279 1439 Q359 1479 493 1487 L493 1643 L657 1643 L657 1477 Q720 1454 746 1440 Q766 1430 810 1399 L810 1475 L1014 1475 L1014 1021 L797 1021 L797 1039 Q797 1184 657 1248 L657 880 Q751 853 800 834 Q941 782 1014 676 Q1084 575 1084 428 Q1084 276 1012 169 Q908 12 657 -13 L657 -183 L493 -183 L493 0 Q409 13 357 31 Q325 42 266 72 L266 0 L49 0 Z M493 928 L493 1273 Q321 1250 321 1105 Q321 1019 388 976 Q424 952 493 928 Z M657 609 L657 205 Q733 225 766 255 Q833 317 833 410 Q833 505 762 557 Q734 578 657 609 Z " />
<glyph glyph-name="percent" unicode="&#x25;" horiz-adv-x="1772" d="M447 1506 Q628 1506 740 1380 Q829 1280 829 1139 Q829 999 740 898 Q628 772 448 772 Q266 772 154 898 Q65 999 65 1143 Q65 1282 154 1380 Q269 1506 447 1506 Z M447 1303 Q377 1303 335 1257 Q292 1210 292 1141 Q292 1067 335 1020 Q377 974 447 974 Q517 974 559 1021 Q602 1068 602 1139 Q602 1209 559 1257 Q517 1303 447 1303 Z M329 0 L1237 1475 L1443 1475 L535 0 L329 0 Z M1325 702 Q1506 702 1618 576 Q1707 476 1707 335 Q1707 196 1618 95 Q1507 -31 1326 -31 Q1143 -31 1032 95 Q943 196 943 340 Q943 478 1032 576 Q1147 702 1325 702 Z M1325 500 Q1255 500 1213 454 Q1170 407 1170 338 Q1170 264 1213 217 Q1255 171 1325 171 Q1395 171 1437 218 Q1480 265 1480 337 Q1480 407 1437 454 Q1395 500 1325 500 Z " />
<glyph glyph-name="ampersand" unicode="&#x26;" horiz-adv-x="1375" d="M711 792 L958 462 Q1003 591 1030 780 L1268 780 Q1238 595 1211 504 Q1172 373 1108 265 L1306 0 L1024 0 L955 94 Q940 83 933 78 Q862 24 809 3 Q719 -32 599 -32 Q371 -32 244 70 Q103 183 103 377 Q103 484 154 570 Q195 638 318 741 Q347 766 410 816 Q356 888 322 942 Q252 1053 252 1160 Q252 1306 350 1405 Q450 1506 611 1506 Q782 1506 885 1398 Q977 1301 977 1170 Q977 1075 917 991 Q867 921 711 792 Z M584 959 Q650 1011 687 1048 Q752 1115 752 1171 Q752 1220 718 1255 Q680 1296 612 1296 Q549 1296 511 1258 Q476 1223 476 1172 Q476 1116 517 1054 Q535 1026 584 959 Z M538 648 Q458 581 432 553 Q366 483 366 403 Q366 307 431 249 Q502 187 621 187 Q697 187 753 218 Q765 225 821 271 L538 648 Z " />
<glyph glyph-name="quotesingle" unicode="&#x27;" horiz-adv-x="365" d="M88 893 L88 1475 L277 1475 L277 893 L88 893 Z " />
<glyph glyph-name="parenleft" unicode="&#x28;" horiz-adv-x="819" d="M695 -425 L457 -425 Q178 57 178 528 Q178 1007 457 1477 L695 1477 Q581 1255 526 1071 Q445 804 445 528 Q445 231 538 -57 Q589 -217 695 -425 Z " />
<glyph glyph-name="parenright" unicode="&#x29;" horiz-adv-x="819" d="M363 -425 L125 -425 Q241 -196 295 -17 Q375 251 375 528 Q375 825 282 1111 Q229 1274 125 1477 L363 1477 Q642 1005 642 528 Q642 58 363 -425 Z " />
<glyph glyph-name="asterisk" unicode="&#x2a;" horiz-adv-x="1147" d="M129 1108 L201 1328 L463 1235 L461 1507 L683 1507 L681 1234 L943 1325 L1018 1106 L747 1034 L932 804 L740 666 L572 907 L402 668 L210 802 L397 1034 L129 1108 Z " />
<glyph glyph-name="plus" unicode="&#x2b;" horiz-adv-x="1147" d="M144 622 L144 849 L459 849 L459 1191 L686 1191 L686 849 L1002 849 L1002 622 L686 622 L686 280 L459 280 L459 622 L144 622 Z " />
<glyph glyph-name="comma" unicode="&#x2c;" horiz-adv-x="573" d="M26 -293 L213 297 L499 297 L275 -293 L26 -293 Z " />
<glyph glyph-name="hyphen" unicode="&#x2d;" horiz-adv-x="715" d="M84 459 L84 683 L632 683 L632 459 L84 459 Z " />
<glyph glyph-name="period" unicode="&#x2e;" horiz-adv-x="573" d="M148 0 L148 297 L425 297 L425 0 L148 0 Z " />
<glyph glyph-name="slash" unicode="&#x2f;" horiz-adv-x="668" d="M10 -185 L500 1480 L675 1480 L185 -185 L10 -185 Z " />
<glyph glyph-name="zero" unicode="0" horiz-adv-x="1147" d="M574 1504 Q748 1504 872 1390 Q1086 1196 1086 738 Q1086 413 977 220 Q837 -29 574 -29 Q287 -29 150 261 Q62 446 62 744 Q62 1061 170 1255 Q310 1504 574 1504 Z M574 1276 Q438 1276 370 1083 Q326 957 326 742 Q326 498 380 367 Q449 199 574 199 Q710 199 778 392 Q822 518 822 738 Q822 976 768 1108 Q700 1276 574 1276 Z " />
<glyph glyph-name="one" unicode="1" horiz-adv-x="1147" d="M477 224 L477 1222 L178 1099 L109 1289 L529 1475 L737 1475 L737 224 L1018 224 L1018 0 L194 0 L194 224 L477 224 Z " />
<glyph glyph-name="two" unicode="2" horiz-adv-x="1147" d="M45 0 Q52 118 93 211 Q171 384 464 671 Q630 833 677 902 Q739 992 739 1077 Q739 1175 679 1231 Q625 1280 537 1280 Q330 1280 296 1001 L49 1001 Q73 1193 141 1300 Q269 1504 538 1504 Q722 1504 846 1410 Q1004 1289 1004 1076 Q1004 957 949 850 Q896 745 757 605 Q712 559 596 449 Q470 330 406 224 L822 224 L822 446 L1056 446 L1056 0 L45 0 Z " />
<glyph glyph-name="three" unicode="3" horiz-adv-x="1147" d="M386 665 L386 860 Q553 860 627 888 Q763 940 763 1082 Q763 1170 705 1225 Q647 1282 548 1282 Q365 1282 328 1089 L75 1089 Q94 1242 175 1344 Q302 1504 558 1504 Q801 1504 924 1364 Q1016 1259 1016 1101 Q1016 956 937 864 Q899 818 825 775 Q1072 680 1072 421 Q1072 206 923 82 Q790 -29 557 -29 Q282 -29 154 129 Q69 235 53 430 L304 430 Q314 341 358 284 Q425 196 557 196 Q663 196 731 254 Q808 321 808 426 Q808 522 736 586 Q671 644 541 659 Q490 664 386 665 Z " />
<glyph glyph-name="four" unicode="4" horiz-adv-x="1147" d="M429 0 L429 224 L654 224 L654 400 L77 400 L77 636 L451 1475 L727 1475 L341 626 L654 626 L654 1026 L899 1026 L899 626 L1123 626 L1123 400 L899 400 L899 224 L1102 224 L1102 0 L429 0 Z " />
<glyph glyph-name="five" unicode="5" horiz-adv-x="1147" d="M44 430 L294 430 Q305 341 349 284 Q416 196 544 196 Q657 196 726 270 Q797 346 797 461 Q797 568 734 638 Q667 712 551 712 Q424 712 299 615 L116 730 L170 1475 L988 1475 L988 1087 L754 1087 L754 1250 L403 1250 L373 883 Q485 937 597 937 Q780 937 899 842 Q1061 713 1061 467 Q1061 231 917 98 Q780 -29 543 -29 Q79 -29 44 430 Z " />
<glyph glyph-name="six" unicode="6" horiz-adv-x="1147" d="M363 870 Q485 968 627 968 Q825 968 951 827 Q1073 690 1073 478 Q1073 266 956 126 Q826 -29 594 -29 Q333 -29 201 180 Q93 352 93 663 Q93 1041 229 1275 Q363 1504 631 1504 Q880 1504 988 1321 Q1038 1236 1052 1109 L802 1109 Q785 1183 758 1217 Q711 1279 624 1279 Q486 1279 419 1116 Q381 1022 363 870 Z M585 743 Q470 743 409 661 Q357 590 357 474 Q357 353 410 278 Q468 196 586 196 Q700 196 757 278 Q809 351 809 468 Q809 587 758 660 Q699 743 585 743 Z " />
<glyph glyph-name="seven" unicode="7" horiz-adv-x="1147" d="M795 1250 L347 1250 L347 1070 L113 1070 L113 1475 L1059 1475 L1059 1282 L568 0 L279 0 L795 1250 Z " />
<glyph glyph-name="eight" unicode="8" horiz-adv-x="1147" d="M303 785 Q231 828 195 878 Q130 966 130 1095 Q130 1277 253 1391 Q375 1504 574 1504 Q791 1504 915 1372 Q1018 1261 1018 1095 Q1018 957 944 867 Q909 824 844 785 Q927 747 988 675 Q1075 573 1075 421 Q1075 222 938 95 Q803 -29 573 -29 Q328 -29 191 113 Q72 237 72 421 Q72 581 170 688 Q228 751 303 785 Z M574 1283 Q465 1283 413 1219 Q371 1166 371 1082 Q371 982 427 931 Q480 882 574 882 Q676 882 729 938 Q777 989 777 1080 Q777 1176 726 1228 Q674 1283 574 1283 Z M573 664 Q449 664 386 591 Q333 531 333 434 Q333 318 399 257 Q462 198 573 198 Q694 198 758 266 Q814 327 814 432 Q814 540 752 601 Q689 664 573 664 Z " />
<glyph glyph-name="nine" unicode="9" horiz-adv-x="1147" d="M782 643 Q660 547 516 547 Q336 547 217 651 Q67 781 67 1015 Q67 1221 184 1353 Q317 1504 546 1504 Q808 1504 939 1308 Q1052 1137 1052 809 Q1052 478 968 266 Q905 108 773 33 Q664 -29 518 -29 Q293 -29 173 107 Q87 203 69 365 L318 365 Q340 282 377 246 Q429 195 521 195 Q694 195 748 390 Q773 481 782 643 Z M559 1279 Q444 1279 384 1203 Q331 1135 331 1024 Q331 914 383 848 Q444 772 559 772 Q675 772 736 848 Q788 915 788 1022 Q788 1136 735 1203 Q675 1279 559 1279 Z " />
<glyph glyph-name="colon" unicode="&#x3a;" horiz-adv-x="574" d="M148 0 L148 297 L425 297 L425 0 L148 0 Z M148 644 L148 941 L425 941 L425 644 L148 644 Z " />
<glyph glyph-name="semicolon" unicode="&#x3b;" horiz-adv-x="573" d="M163 644 L163 941 L440 941 L440 644 L163 644 Z M-23 -293 L164 297 L450 297 L226 -293 L-23 -293 Z " />
<glyph glyph-name="less" unicode="&#x3c;" horiz-adv-x="1147" d="M399 736 L1003 412 L1003 163 L138 652 L138 819 L1003 1308 L1003 1059 L399 736 Z " />
<glyph glyph-name="equal" unicode="&#x3d;" horiz-adv-x="1147" d="M144 428 L144 655 L1002 655 L1002 428 L144 428 Z M144 816 L144 1043 L1002 1043 L1002 816 L144 816 Z " />
<glyph glyph-name="greater" unicode="&#x3e;" horiz-adv-x="1147" d="M747 736 L144 1059 L144 1308 L1009 819 L1009 652 L144 163 L144 412 L747 736 Z " />
<glyph glyph-name="question" unicode="&#x3f;" horiz-adv-x="1037" d="M354 0 L354 294 L631 294 L631 0 L354 0 Z M370 457 L370 862 Q509 863 573 890 Q700 944 700 1082 Q700 1170 646 1225 Q591 1280 506 1280 Q393 1280 340 1180 Q314 1132 305 1034 L63 1034 Q73 1206 135 1310 Q254 1508 515 1508 Q716 1508 840 1387 Q964 1267 964 1072 Q964 900 861 792 Q773 701 613 673 L613 457 L370 457 Z " />
<glyph glyph-name="at" unicode="&#x40;" horiz-adv-x="2239" d="M1360 310 Q1240 185 1068 185 Q893 185 782 300 Q668 418 668 616 Q668 816 782 933 Q891 1043 1062 1043 Q1195 1043 1281 980 Q1299 967 1328 937 L1341 1038 L1543 1038 L1543 538 Q1543 451 1564 418 Q1590 379 1658 379 Q1764 379 1813 476 Q1859 566 1859 708 Q1859 996 1663 1152 Q1463 1310 1148 1310 Q758 1310 549 1065 Q383 869 383 579 Q383 288 549 136 Q672 22 843 -19 Q1011 -60 1203 -60 Q1450 -60 1668 -8 Q1759 13 1881 56 L1957 -141 Q1819 -190 1722 -214 Q1482 -273 1200 -273 Q859 -273 635 -180 Q369 -68 238 138 Q124 319 124 579 Q124 960 369 1220 Q655 1523 1145 1523 Q1524 1523 1784 1346 Q1965 1222 2052 1029 Q2117 885 2117 719 Q2117 476 1996 335 Q1931 260 1832 220 Q1737 182 1632 182 Q1430 182 1360 310 Z M1105 847 Q1016 847 964 783 Q914 721 914 614 Q914 508 964 445 Q1016 381 1106 381 Q1200 381 1257 448 Q1310 510 1310 611 Q1310 719 1257 780 Q1199 847 1105 847 Z " />
<glyph glyph-name="A" unicode="A" horiz-adv-x="1470" d="M1020 421 L448 421 L374 224 L516 224 L516 0 L-12 0 L-12 224 L102 224 L594 1475 L873 1475 L1366 224 L1481 224 L1481 0 L952 0 L952 224 L1094 224 L1020 421 Z M938 638 L733 1206 L529 638 L938 638 Z " />
<glyph glyph-name="B" unicode="B" horiz-adv-x="1359" d="M210 224 L210 1251 L69 1251 L69 1475 L709 1475 Q1197 1475 1197 1107 Q1197 895 1014 795 Q1120 760 1182 687 Q1265 589 1265 441 Q1265 199 1072 85 Q927 0 684 0 L69 0 L69 224 L210 224 Z M470 893 L661 893 Q795 893 855 928 Q933 974 933 1071 Q933 1173 848 1220 Q789 1252 687 1252 L470 1252 L470 893 Z M470 223 L625 223 Q804 223 883 265 Q991 322 991 450 Q991 580 882 638 Q806 679 675 679 L470 679 L470 223 Z " />
<glyph glyph-name="C" unicode="C" horiz-adv-x="1457" d="M1221 394 L1380 206 Q1280 99 1169 46 Q1006 -31 791 -31 Q436 -31 253 183 Q81 384 81 724 Q81 1078 272 1294 Q459 1506 771 1506 Q956 1506 1119 1413 L1119 1475 L1336 1475 L1336 1021 L1102 1021 L1102 1039 Q1102 1120 1045 1178 Q955 1271 787 1271 Q580 1271 465 1115 Q355 967 355 730 Q355 491 476 345 Q586 211 799 211 Q958 211 1087 287 Q1139 317 1221 394 Z " />
<glyph glyph-name="D" unicode="D" horiz-adv-x="1511" d="M210 224 L210 1251 L69 1251 L69 1475 L626 1475 Q858 1475 1010 1415 Q1227 1331 1337 1135 Q1431 969 1431 738 Q1431 376 1204 177 Q1072 62 886 23 Q774 0 626 0 L69 0 L69 224 L210 224 Z M480 224 L616 224 Q851 224 992 340 Q1156 475 1156 737 Q1156 1000 993 1134 Q851 1251 616 1251 L480 1251 L480 224 Z " />
<glyph glyph-name="E" unicode="E" horiz-adv-x="1260" d="M210 224 L210 1251 L69 1251 L69 1475 L1188 1475 L1188 1086 L954 1086 L954 1251 L480 1251 L480 883 L938 883 L938 659 L480 659 L480 224 L957 224 L957 437 L1191 437 L1191 0 L69 0 L69 224 L210 224 Z " />
<glyph glyph-name="F" unicode="F" horiz-adv-x="1208" d="M210 224 L210 1251 L69 1251 L69 1475 L1187 1475 L1187 1086 L953 1086 L953 1251 L480 1251 L480 859 L938 859 L938 635 L480 635 L480 224 L668 224 L668 0 L69 0 L69 224 L210 224 Z " />
<glyph glyph-name="G" unicode="G" horiz-adv-x="1644" d="M828 529 L828 753 L1496 753 L1496 63 Q1226 -31 867 -31 Q650 -31 512 23 Q298 107 187 295 Q81 474 81 730 Q81 1104 322 1323 Q521 1505 842 1505 Q1006 1505 1134 1457 Q1175 1442 1232 1413 L1232 1475 L1449 1475 L1449 1021 L1215 1021 L1215 1039 Q1215 1119 1156 1175 Q1055 1271 863 1271 Q619 1271 486 1120 Q355 972 355 734 Q355 472 502 330 Q631 204 875 204 Q1062 204 1251 252 L1251 529 L828 529 Z " />
<glyph glyph-name="H" unicode="H" horiz-adv-x="1494" d="M210 224 L210 1251 L69 1251 L69 1475 L636 1475 L636 1251 L480 1251 L480 885 L1015 885 L1015 1251 L857 1251 L857 1475 L1426 1475 L1426 1251 L1285 1251 L1285 224 L1426 224 L1426 0 L857 0 L857 224 L1015 224 L1015 661 L480 661 L480 224 L636 224 L636 0 L69 0 L69 224 L210 224 Z " />
<glyph glyph-name="I" unicode="I" horiz-adv-x="691" d="M211 224 L211 1251 L70 1251 L70 1475 L622 1475 L622 1251 L481 1251 L481 224 L622 224 L622 0 L70 0 L70 224 L211 224 Z " />
<glyph glyph-name="J" unicode="J" horiz-adv-x="690" d="M215 1251 L61 1251 L61 1475 L626 1475 L626 1251 L485 1251 L485 188 Q485 -13 454 -108 Q395 -290 202 -334 Q144 -347 23 -351 L23 -127 Q82 -124 112 -115 Q175 -96 197 -22 Q215 37 215 144 L215 1251 Z " />
<glyph glyph-name="K" unicode="K" horiz-adv-x="1326" d="M210 224 L210 1251 L69 1251 L69 1475 L604 1475 L604 1251 L480 1251 L480 809 L872 1252 L759 1251 L759 1475 L1273 1475 L1273 1251 L1171 1251 L760 795 L1173 224 L1299 224 L1299 0 L754 0 L754 224 L863 224 L480 756 L480 224 L591 224 L591 0 L69 0 L69 224 L210 224 Z " />
<glyph glyph-name="L" unicode="L" horiz-adv-x="1171" d="M210 224 L210 1251 L69 1251 L69 1475 L653 1475 L653 1251 L480 1251 L480 224 L886 224 L886 454 L1120 454 L1120 0 L69 0 L69 224 L210 224 Z " />
<glyph glyph-name="M" unicode="M" horiz-adv-x="1832" d="M168 224 L250 1251 L107 1251 L107 1475 L625 1475 L856 668 Q875 603 917 402 Q955 591 977 667 L1208 1475 L1725 1475 L1725 1251 L1583 1251 L1664 224 L1773 224 L1773 0 L1274 0 L1274 224 L1404 224 L1360 920 Q1356 994 1351 1191 Q1309 1020 1281 923 L1019 0 L814 0 L549 933 Q528 1009 482 1191 Q477 993 473 931 L428 224 L559 224 L559 0 L59 0 L59 224 L168 224 Z " />
<glyph glyph-name="N" unicode="N" horiz-adv-x="1474" d="M210 224 L210 1251 L69 1251 L69 1475 L530 1475 L941 698 Q969 645 1031 499 Q1025 643 1025 717 L1025 1251 L867 1251 L867 1475 L1411 1475 L1411 1251 L1270 1251 L1270 -27 L1057 -27 L534 968 Q525 986 447 1161 Q455 967 455 964 L455 224 L609 224 L609 0 L69 0 L69 224 L210 224 Z " />
<glyph glyph-name="O" unicode="O" horiz-adv-x="1716" d="M858 1506 Q1109 1506 1308 1372 Q1497 1245 1580 1033 Q1635 894 1635 738 Q1635 459 1472 254 Q1355 107 1177 32 Q1029 -31 860 -31 Q606 -31 408 103 Q219 230 136 443 Q81 582 81 747 Q81 923 157 1083 Q256 1293 472 1411 Q646 1506 858 1506 Z M858 1271 Q633 1271 489 1112 Q355 965 355 745 Q355 512 489 363 Q632 204 859 204 Q1084 204 1227 363 Q1361 512 1361 738 Q1361 965 1227 1112 Q1082 1271 858 1271 Z " />
<glyph glyph-name="P" unicode="P" horiz-adv-x="1277" d="M210 224 L210 1251 L69 1251 L69 1475 L608 1475 Q787 1475 889 1451 Q1051 1412 1142 1281 Q1222 1165 1222 1002 Q1222 540 609 540 L480 540 L480 224 L667 224 L667 0 L69 0 L69 224 L210 224 Z M480 757 L593 757 Q948 757 948 1009 Q948 1251 605 1251 L480 1251 L480 757 Z " />
<glyph glyph-name="Q" unicode="Q" horiz-adv-x="1716" d="M467 -355 L406 -134 Q503 -80 549 -60 Q616 -32 707 -16 Q502 21 348 149 Q205 267 136 444 Q81 583 81 739 Q81 1017 244 1222 Q361 1368 539 1443 Q688 1506 858 1506 Q1110 1506 1308 1372 Q1497 1246 1580 1033 Q1635 894 1635 739 Q1635 459 1472 255 Q1337 85 1124 12 Q1037 -18 915 -27 Q982 -44 1110 -95 Q1247 -149 1307 -149 Q1367 -149 1469 -106 L1522 -329 Q1393 -384 1285 -384 Q1205 -384 1111 -351 Q1071 -337 945 -287 Q840 -245 763 -245 Q638 -245 467 -355 Z M858 1271 Q633 1271 489 1112 Q355 965 355 746 Q355 513 489 364 Q632 205 859 205 Q1084 205 1227 364 Q1361 513 1361 739 Q1361 965 1227 1112 Q1082 1271 858 1271 Z " />
<glyph glyph-name="R" unicode="R" horiz-adv-x="1314" d="M210 224 L210 1251 L69 1251 L69 1475 L675 1475 Q825 1475 908 1458 Q1046 1430 1126 1315 Q1203 1203 1203 1049 Q1203 878 1101 775 Q1067 741 964 682 Q1025 650 1057 598 Q1084 553 1114 455 L1185 224 L1315 224 L1315 0 L949 0 L888 268 Q849 437 798 507 Q759 561 679 578 Q629 588 556 588 L480 588 L480 224 L641 224 L641 0 L69 0 L69 224 L210 224 Z M480 805 L611 805 Q778 805 845 851 Q928 908 928 1035 Q928 1163 840 1215 Q779 1251 639 1251 L480 1251 L480 805 Z " />
<glyph glyph-name="S" unicode="S" horiz-adv-x="1248" d="M109 0 L109 474 L343 474 L343 441 Q343 349 406 288 Q492 204 650 204 Q777 204 845 261 Q913 319 913 411 Q913 509 821 568 Q763 605 539 669 Q381 714 318 745 Q115 844 115 1078 Q115 1283 243 1397 Q365 1506 564 1506 Q699 1506 794 1457 Q821 1442 863 1413 L863 1475 L1080 1475 L1080 1021 L846 1021 L846 1039 Q846 1124 801 1183 Q734 1271 585 1271 Q495 1271 439 1229 Q379 1185 379 1104 Q379 1017 459 969 Q514 935 702 887 Q872 844 948 804 Q1177 685 1177 427 Q1177 221 1052 101 Q914 -31 666 -31 Q487 -31 326 62 L326 0 L109 0 Z " />
<glyph glyph-name="T" unicode="T" horiz-adv-x="1290" d="M510 224 L510 1251 L274 1251 L274 1062 L40 1062 L40 1475 L1249 1475 L1249 1062 L1015 1062 L1015 1251 L780 1251 L780 224 L993 224 L993 0 L298 0 L298 224 L510 224 Z " />
<glyph glyph-name="U" unicode="U" horiz-adv-x="1453" d="M59 1251 L59 1475 L627 1475 L627 1251 L470 1251 L470 586 Q470 452 487 386 Q532 211 727 211 Q882 211 940 317 Q967 367 977 438 Q984 487 984 586 L984 1251 L827 1251 L827 1475 L1395 1475 L1395 1251 L1254 1251 L1254 628 Q1254 417 1231 313 Q1194 147 1068 59 Q937 -31 727 -31 Q412 -31 284 165 Q224 259 207 411 Q200 479 200 628 L200 1251 L59 1251 Z " />
<glyph glyph-name="V" unicode="V" horiz-adv-x="1313" d="M9 1251 L9 1475 L559 1475 L559 1251 L415 1251 L607 665 Q653 527 673 429 Q699 560 731 666 L907 1251 L757 1251 L757 1475 L1305 1475 L1305 1251 L1177 1251 L771 -31 L579 -31 L134 1251 L9 1251 Z " />
<glyph glyph-name="W" unicode="W" horiz-adv-x="1985" d="M22 1251 L22 1475 L573 1475 L573 1251 L425 1251 L606 646 Q626 580 651 474 Q663 524 670 549 Q685 610 691 632 L932 1480 L1082 1480 L1333 632 Q1353 564 1370 474 Q1392 580 1420 672 L1593 1251 L1457 1251 L1457 1475 L1964 1475 L1964 1251 L1849 1251 L1457 -31 L1275 -31 L1043 770 Q1024 836 1005 953 Q983 839 965 776 L731 -31 L547 -31 L147 1251 L22 1251 Z " />
<glyph glyph-name="X" unicode="X" horiz-adv-x="1350" d="M157 224 L515 752 L178 1251 L45 1251 L45 1475 L607 1475 L607 1251 L488 1251 L688 932 L875 1251 L763 1251 L763 1475 L1305 1475 L1305 1251 L1170 1251 L828 748 L1181 224 L1320 224 L1320 0 L751 0 L751 224 L872 224 L658 573 L450 224 L565 224 L565 0 L10 0 L10 224 L157 224 Z " />
<glyph glyph-name="Y" unicode="Y" horiz-adv-x="1282" d="M501 224 L501 673 L116 1251 L10 1251 L10 1475 L552 1475 L552 1251 L434 1251 L652 896 L870 1251 L753 1251 L753 1475 L1265 1475 L1265 1251 L1151 1251 L771 668 L771 224 L961 224 L961 0 L312 0 L312 224 L501 224 Z " />
<glyph glyph-name="Z" unicode="Z" horiz-adv-x="1150" d="M14 0 L14 208 L733 1251 L305 1251 L305 1062 L71 1062 L71 1475 L1084 1475 L1084 1300 L349 224 L846 224 L846 440 L1080 440 L1080 0 L14 0 Z " />
<glyph glyph-name="bracketleft" unicode="&#x5b;" horiz-adv-x="819" d="M242 -422 L242 1475 L697 1475 L697 1281 L509 1281 L509 -217 L697 -217 L697 -422 L242 -422 Z " />
<glyph glyph-name="backslash" unicode="&#x5c;" horiz-adv-x="668" d="M478 -185 L-12 1480 L163 1480 L653 -185 L478 -185 Z " />
<glyph glyph-name="bracketright" unicode="&#x5d;" horiz-adv-x="819" d="M122 -422 L122 -217 L310 -217 L310 1281 L122 1281 L122 1475 L577 1475 L577 -422 L122 -422 Z " />
<glyph glyph-name="asciicircum" unicode="&#x5e;" horiz-adv-x="1147" d="M573 1275 L285 891 L33 891 L461 1475 L685 1475 L1114 891 L861 891 L573 1275 Z " />
<glyph glyph-name="underscore" unicode="&#x5f;" horiz-adv-x="1024" d="M-13 -422 L-13 -198 L1036 -198 L1036 -422 L-13 -422 Z " />
<glyph glyph-name="grave" unicode="&#x60;" horiz-adv-x="1024" d="M494 1137 L203 1487 L469 1487 L668 1137 L494 1137 Z " />
<glyph glyph-name="a" unicode="a" horiz-adv-x="1197" d="M742 605 L742 649 Q742 739 716 769 Q673 816 543 816 Q448 816 414 782 Q391 759 384 697 L143 697 Q148 860 228 936 Q320 1026 550 1026 Q842 1026 942 895 Q988 834 1002 731 Q1008 684 1008 594 L1008 224 L1146 224 L1146 0 L774 0 L774 97 Q648 -29 437 -29 Q271 -29 172 43 Q63 122 63 295 Q63 475 192 558 Q282 616 494 616 Q607 616 742 605 Z M749 413 Q628 423 516 423 Q402 423 365 396 Q323 365 323 303 Q323 240 364 214 Q402 189 492 189 Q640 189 710 250 Q738 275 745 305 Q749 320 749 358 L749 413 Z " />
<glyph glyph-name="b" unicode="b" horiz-adv-x="1232" d="M144 0 L144 1251 L3 1251 L3 1475 L404 1475 L404 913 Q446 949 470 965 Q566 1028 701 1028 Q903 1028 1030 888 Q1162 744 1162 500 Q1162 255 1030 111 Q903 -29 699 -29 Q511 -29 377 109 L375 0 L144 0 Z M657 804 Q540 804 469 715 Q404 634 404 504 Q404 366 469 284 Q539 195 657 195 Q772 195 838 284 Q898 364 898 500 Q898 640 835 719 Q767 804 657 804 Z " />
<glyph glyph-name="c" unicode="c" horiz-adv-x="1035" d="M889 315 L1022 140 Q853 -30 569 -30 Q334 -30 209 92 Q67 230 67 487 Q67 727 184 874 Q306 1028 519 1028 Q654 1028 759 953 L759 999 L953 999 L953 631 L736 631 L736 656 Q736 729 701 760 Q651 805 567 805 Q450 805 389 720 Q331 638 331 499 Q331 357 398 276 Q464 196 585 196 Q705 196 796 245 Q836 267 889 315 Z " />
<glyph glyph-name="d" unicode="d" horiz-adv-x="1281" d="M850 0 L850 107 Q804 63 771 40 Q667 -29 528 -29 Q326 -29 198 111 Q67 255 67 500 Q67 744 198 888 Q326 1028 527 1028 Q663 1028 759 966 Q785 949 825 913 L825 1251 L678 1251 L678 1475 L1085 1475 L1085 224 L1225 224 L1225 0 L850 0 Z M572 804 Q460 804 394 719 Q331 638 331 500 Q331 364 391 284 Q457 195 572 195 Q690 195 760 284 Q825 366 825 495 Q825 635 760 715 Q688 804 572 804 Z " />
<glyph glyph-name="e" unicode="e" horiz-adv-x="1164" d="M1100 413 L336 413 Q351 337 383 294 Q455 195 610 195 Q731 195 846 242 Q893 261 970 304 L1088 110 Q986 50 912 23 Q765 -31 607 -31 Q357 -31 212 111 Q63 257 63 500 Q63 745 211 891 Q351 1028 587 1028 Q803 1028 937 903 Q1057 792 1086 604 Q1098 529 1100 413 Z M824 612 Q783 813 583 813 Q389 813 339 612 L824 612 Z " />
<glyph glyph-name="f" unicode="f" horiz-adv-x="775" d="M206 224 L206 775 L58 775 L58 999 L206 1013 L206 1089 Q206 1297 296 1393 Q387 1491 591 1491 Q686 1491 777 1475 L762 1261 Q683 1275 627 1275 Q521 1275 488 1205 Q466 1158 466 1066 L466 999 L708 999 L708 775 L466 775 L466 224 L684 224 L684 0 L58 0 L58 224 L206 224 Z " />
<glyph glyph-name="g" unicode="g" horiz-adv-x="1275" d="M825 107 Q783 72 754 54 Q658 -3 529 -3 Q326 -3 198 131 Q67 269 67 503 Q67 737 192 881 Q321 1028 534 1028 Q677 1028 777 957 Q806 936 850 892 L850 999 L1226 999 L1226 775 L1085 775 L1085 98 Q1085 -72 1060 -163 Q1021 -307 899 -380 Q781 -450 576 -450 Q329 -450 228 -356 Q149 -283 144 -116 L385 -116 Q394 -176 423 -200 Q465 -236 578 -236 Q693 -236 749 -189 Q802 -145 817 -60 Q825 -16 825 70 L825 107 Z M572 804 Q460 804 394 720 Q331 639 331 504 Q331 376 391 303 Q458 221 572 221 Q689 221 760 302 Q825 377 825 499 Q825 634 760 715 Q689 804 572 804 Z " />
<glyph glyph-name="h" unicode="h" horiz-adv-x="1295" d="M199 224 L199 1251 L58 1251 L58 1475 L459 1475 L459 890 Q526 944 581 975 Q677 1028 788 1028 Q979 1028 1052 896 Q1106 797 1106 576 L1106 224 L1244 224 L1244 0 L726 0 L726 224 L846 224 L846 589 Q846 681 827 725 Q798 796 718 796 Q641 796 555 736 Q528 717 459 652 L459 224 L587 224 L587 0 L58 0 L58 224 L199 224 Z " />
<glyph glyph-name="i" unicode="i" horiz-adv-x="650" d="M214 224 L214 775 L73 775 L73 999 L474 999 L474 224 L613 224 L613 0 L59 0 L59 224 L214 224 Z M210 1136 L210 1413 L477 1413 L477 1136 L210 1136 Z " />
<glyph glyph-name="j" unicode="j" horiz-adv-x="643" d="M81 775 L81 999 L480 999 L480 19 Q480 -145 451 -223 Q396 -372 217 -408 Q169 -417 61 -422 L61 -198 Q148 -194 177 -166 Q220 -128 220 -11 L220 775 L81 775 Z M216 1136 L216 1413 L483 1413 L483 1136 L216 1136 Z " />
<glyph glyph-name="k" unicode="k" horiz-adv-x="1165" d="M198 224 L198 1251 L57 1251 L57 1475 L458 1475 L458 568 L717 799 L606 799 L606 999 L1099 999 L1099 778 L997 778 L744 550 L1050 224 L1149 224 L1149 0 L674 0 L674 207 L756 207 L458 537 L458 207 L547 207 L547 0 L57 0 L57 224 L198 224 Z " />
<glyph glyph-name="l" unicode="l" horiz-adv-x="649" d="M213 224 L213 1251 L72 1251 L72 1475 L473 1475 L473 224 L612 224 L612 0 L58 0 L58 224 L213 224 Z " />
<glyph glyph-name="m" unicode="m" horiz-adv-x="1875" d="M204 224 L204 775 L63 775 L63 999 L457 999 L457 885 Q544 954 582 976 Q672 1028 772 1028 Q910 1028 981 953 Q1011 923 1037 861 Q1128 937 1177 967 Q1277 1028 1386 1028 Q1568 1028 1636 896 Q1687 795 1687 576 L1687 224 L1824 224 L1824 0 L1318 0 L1318 224 L1427 224 L1427 589 Q1427 679 1411 725 Q1386 796 1315 796 Q1247 796 1170 739 Q1143 719 1075 651 L1075 224 L1201 224 L1201 0 L706 0 L706 224 L815 224 L815 589 Q815 680 799 725 Q774 796 703 796 Q635 796 558 739 Q523 713 464 651 L464 224 L580 224 L580 0 L63 0 L63 224 L204 224 Z " />
<glyph glyph-name="n" unicode="n" horiz-adv-x="1302" d="M204 224 L204 775 L63 775 L63 999 L464 999 L464 885 Q551 952 595 976 Q688 1028 797 1028 Q987 1028 1059 896 Q1113 797 1113 576 L1113 224 L1250 224 L1250 0 L732 0 L732 224 L853 224 L853 589 Q853 680 834 725 Q804 796 723 796 Q648 796 565 739 Q527 713 464 651 L464 224 L593 224 L593 0 L63 0 L63 224 L204 224 Z " />
<glyph glyph-name="o" unicode="o" horiz-adv-x="1218" d="M609 1028 Q847 1028 996 888 Q1151 743 1151 500 Q1151 256 996 111 Q848 -29 611 -29 Q370 -29 222 111 Q67 257 67 507 Q67 745 222 888 Q373 1028 609 1028 Z M609 804 Q478 804 401 715 Q331 636 331 504 Q331 364 401 284 Q478 195 610 195 Q740 195 817 284 Q887 364 887 500 Q887 637 817 715 Q738 804 609 804 Z " />
<glyph glyph-name="p" unicode="p" horiz-adv-x="1282" d="M197 -198 L197 775 L57 775 L57 999 L430 999 L430 890 Q475 935 508 958 Q611 1028 753 1028 Q956 1028 1084 888 Q1215 744 1215 499 Q1215 255 1084 111 Q956 -29 756 -29 Q587 -29 457 86 L457 -198 L626 -198 L626 -422 L57 -422 L57 -198 L197 -198 Z M710 804 Q593 804 522 715 Q457 635 457 504 Q457 366 522 284 Q592 195 710 195 Q825 195 891 284 Q951 364 951 500 Q951 639 888 719 Q820 804 710 804 Z " />
<glyph glyph-name="q" unicode="q" horiz-adv-x="1282" d="M825 -198 L825 86 Q779 47 754 30 Q659 -29 526 -29 Q326 -29 198 111 Q67 255 67 499 Q67 744 198 888 Q326 1028 530 1028 Q716 1028 850 892 L850 999 L1225 999 L1225 775 L1085 775 L1085 -198 L1225 -198 L1225 -422 L656 -422 L656 -198 L825 -198 Z M572 804 Q460 804 394 719 Q331 638 331 500 Q331 364 391 284 Q457 195 572 195 Q690 195 760 284 Q825 366 825 495 Q825 635 760 715 Q688 804 572 804 Z " />
<glyph glyph-name="r" unicode="r" horiz-adv-x="842" d="M204 224 L204 775 L63 775 L63 999 L452 999 L452 877 Q550 962 601 987 Q684 1028 786 1028 L819 1028 L819 779 L773 779 Q666 779 593 738 Q539 707 464 630 L464 224 L613 224 L613 0 L63 0 L63 224 L204 224 Z " />
<glyph glyph-name="s" unicode="s" horiz-adv-x="1027" d="M83 0 L83 354 L300 354 L300 319 Q300 272 318 248 Q372 177 546 177 Q635 177 678 208 Q719 237 719 285 Q719 327 671 352 Q645 366 475 396 Q256 435 169 502 Q78 573 78 710 Q78 856 179 944 Q275 1028 444 1028 Q549 1028 624 996 Q653 983 701 953 L701 999 L895 999 L895 679 L678 679 L678 692 Q678 747 633 779 Q574 822 477 822 Q333 822 333 730 Q333 685 395 659 Q425 647 571 617 Q793 572 863 520 Q965 443 965 293 Q965 142 858 54 Q756 -29 564 -29 Q408 -29 277 46 L277 0 L83 0 Z " />
<glyph glyph-name="t" unicode="t" horiz-adv-x="754" d="M196 775 L48 775 L48 999 L196 999 L196 1325 L456 1325 L456 999 L697 999 L697 775 L456 775 L456 393 Q456 292 477 260 Q500 224 569 224 L700 224 L700 0 L567 0 Q398 0 309 63 Q196 143 196 344 L196 775 Z " />
<glyph glyph-name="u" unicode="u" horiz-adv-x="1247" d="M189 775 L52 775 L52 999 L449 999 L449 410 Q449 323 461 283 Q480 216 548 216 Q618 216 698 268 Q733 291 794 348 L794 775 L665 775 L665 999 L1052 999 L1052 224 L1193 224 L1193 0 L794 0 L794 114 Q707 51 668 31 Q577 -16 475 -16 Q301 -16 237 113 Q189 210 189 423 L189 775 Z " />
<glyph glyph-name="v" unicode="v" horiz-adv-x="1139" d="M127 775 L6 775 L6 999 L508 999 L508 775 L400 775 L520 449 Q540 395 573 274 Q615 419 627 449 L749 775 L639 775 L639 999 L1133 999 L1133 775 L1014 775 L680 -28 L444 -28 L127 775 Z " />
<glyph glyph-name="w" unicode="w" horiz-adv-x="1672" d="M133 775 L25 775 L25 999 L502 999 L502 775 L390 775 L491 492 Q516 422 538 338 Q567 434 597 510 L791 999 L891 999 L1085 484 Q1109 420 1134 338 Q1165 439 1181 479 L1295 775 L1173 775 L1173 999 L1646 999 L1646 775 L1545 775 L1219 -27 L1047 -27 L879 432 Q854 500 834 576 Q816 501 791 437 L618 -27 L449 -27 L133 775 Z " />
<glyph glyph-name="x" unicode="x" horiz-adv-x="1146" d="M159 224 L409 522 L193 775 L59 775 L59 999 L546 999 L546 806 L468 806 L587 648 L708 806 L631 806 L631 999 L1095 999 L1095 775 L964 775 L721 511 L967 224 L1109 224 L1109 0 L598 0 L598 206 L681 206 L549 387 L416 206 L498 206 L498 0 L38 0 L38 224 L159 224 Z " />
<glyph glyph-name="y" unicode="y" horiz-adv-x="1122" d="M106 775 L16 775 L16 999 L510 999 L510 775 L382 775 L515 458 Q540 400 569 309 Q600 392 641 487 L767 775 L633 775 L633 999 L1131 999 L1131 775 L1032 775 L638 -63 Q580 -185 546 -245 Q469 -377 334 -407 Q269 -421 153 -422 L153 -198 Q246 -198 282 -179 Q335 -152 389 -37 L431 50 L106 775 Z " />
<glyph glyph-name="z" unicode="z" horiz-adv-x="970" d="M28 0 L28 224 L550 775 L299 775 L299 658 L75 658 L75 999 L884 999 L884 802 L345 224 L678 224 L678 378 L902 378 L902 0 L28 0 Z " />
<glyph glyph-name="braceleft" unicode="&#x7b;" horiz-adv-x="819" d="M368 573 Q456 533 485 471 Q516 401 516 230 L516 -26 Q516 -156 557 -195 Q593 -230 689 -230 L754 -230 L754 -422 L655 -422 Q505 -422 445 -406 Q329 -376 289 -288 Q259 -220 259 -59 L259 215 Q259 375 208 431 Q178 463 129 471 Q114 473 80 475 L80 670 Q145 674 175 690 Q228 717 245 783 Q259 837 259 932 L259 1112 Q259 1268 285 1334 Q323 1431 452 1461 Q511 1475 655 1475 L754 1475 L754 1283 L688 1283 Q591 1283 554 1246 Q516 1207 516 1079 L516 896 Q516 744 485 675 Q456 611 368 573 Z " />
<glyph glyph-name="bar" unicode="&#x7c;" horiz-adv-x="1024" d="M378 -480 L378 1568 L646 1568 L646 -480 L378 -480 Z " />
<glyph glyph-name="braceright" unicode="&#x7d;" horiz-adv-x="819" d="M452 573 Q365 611 336 675 Q304 745 304 896 L304 1079 Q304 1207 266 1246 Q229 1283 132 1283 L66 1283 L66 1475 L165 1475 Q322 1475 387 1456 Q508 1421 540 1318 Q561 1253 561 1112 L561 932 Q561 785 599 730 Q626 691 677 678 Q697 673 740 670 L740 475 Q685 472 659.5 463 Q634 454 612 431 Q561 375 561 215 L561 -59 Q561 -236 522 -305 Q476 -386 360 -410 Q301 -422 165 -422 L66 -422 L66 -230 L131 -230 Q227 -230 264 -195 Q304 -156 304 -26 L304 230 Q304 401 336 471 Q364 534 452 573 Z " />
<glyph glyph-name="asciitilde" unicode="&#x7e;" horiz-adv-x="1147" d="M193 553 L57 726 Q123 803 177 846 Q277 926 383 926 Q461 926 543 888 Q566 877 682 809 Q714 790 760 790 Q844 790 954 920 L1089 748 Q1022 668 965 625 Q865 547 766 547 Q692 547 605 586 Q586 595 472 657 Q431 680 384 680 Q323 680 256 618 Q232 595 193 553 Z " />
<glyph glyph-name="Adieresis" unicode="&#xc4;" horiz-adv-x="1470" d="M1020 421 L448 421 L374 224 L516 224 L516 0 L-12 0 L-12 224 L102 224 L594 1475 L873 1475 L1366 224 L1481 224 L1481 0 L952 0 L952 224 L1094 224 L1020 421 Z M938 638 L733 1206 L529 638 L938 638 Z M425 1630 L425 1877 L654 1877 L654 1630 L425 1630 Z M816 1630 L816 1877 L1045 1877 L1045 1630 L816 1630 Z " />
<glyph glyph-name="Aring" unicode="&#xc5;" horiz-adv-x="1470" d="M1020 421 L448 421 L374 224 L516 224 L516 0 L-12 0 L-12 224 L102 224 L594 1475 L873 1475 L1366 224 L1481 224 L1481 0 L952 0 L952 224 L1094 224 L1020 421 Z M938 638 L733 1206 L529 638 L938 638 Z M736 2059 Q861 2059 931 1984 Q993 1917 993 1812 Q993 1708 931 1641 Q862 1566 737 1566 Q610 1566 541 1641 Q479 1708 479 1816 Q479 1918 541 1984 Q612 2059 736 2059 Z M736 1925 Q678 1925 650 1886 Q630 1859 630 1814 Q630 1700 736 1700 Q842 1700 842 1812 Q842 1925 736 1925 Z " />
<glyph glyph-name="Ccedilla" unicode="&#xc7;" horiz-adv-x="1457" d="M1221 394 L1380 206 Q1258 76 1109 21 Q996 -21 836 -30 L807 -85 Q886 -93 925 -115 Q1014 -164 1014 -278 Q1014 -398 923 -455 Q852 -499 732 -499 Q599 -499 467 -459 L467 -270 Q629 -334 727 -334 Q814 -334 814 -276 Q814 -238 774 -228 Q752 -222 710 -222 Q692 -222 629 -228 L629 -107 L671 -24 Q484 1 368 81 Q81 277 81 724 Q81 1078 272 1294 Q459 1506 771 1506 Q957 1506 1119 1413 L1119 1475 L1336 1475 L1336 1021 L1102 1021 L1102 1039 Q1102 1120 1045 1178 Q955 1271 787 1271 Q580 1271 465 1115 Q355 967 355 730 Q355 492 476 345 Q586 211 799 211 Q959 211 1087 287 Q1139 317 1221 394 Z " />
<glyph glyph-name="Eacute" unicode="&#xc9;" horiz-adv-x="1260" d="M210 224 L210 1251 L69 1251 L69 1475 L1188 1475 L1188 1086 L954 1086 L954 1251 L480 1251 L480 883 L938 883 L938 659 L480 659 L480 224 L957 224 L957 437 L1191 437 L1191 0 L69 0 L69 224 L210 224 Z M526 1606 L718 1948 L984 1948 L699 1606 L526 1606 Z " />
<glyph glyph-name="Ntilde" unicode="&#xd1;" horiz-adv-x="1474" d="M210 224 L210 1251 L69 1251 L69 1475 L530 1475 L941 698 Q969 645 1031 499 Q1025 643 1025 717 L1025 1251 L867 1251 L867 1475 L1411 1475 L1411 1251 L1270 1251 L1270 -27 L1057 -27 L534 968 Q525 986 447 1161 Q455 967 455 964 L455 224 L609 224 L609 0 L69 0 L69 224 L210 224 Z M567 1634 L407 1634 Q444 1878 641 1878 Q689 1878 742 1857 Q767 1848 824 1822 Q865 1803 889 1803 Q938 1803 960 1878 L1122 1878 Q1102 1772 1058 1712 Q998 1628 878 1628 Q828 1628 785 1645 Q766 1653 693 1686 Q657 1702 639 1702 Q594 1702 567 1634 Z " />
<glyph glyph-name="Odieresis" unicode="&#xd6;" horiz-adv-x="1716" d="M858 1506 Q1109 1506 1308 1372 Q1497 1245 1580 1033 Q1635 894 1635 738 Q1635 459 1472 254 Q1355 107 1177 32 Q1029 -31 860 -31 Q606 -31 408 103 Q219 230 136 443 Q81 582 81 747 Q81 923 157 1083 Q256 1293 472 1411 Q646 1506 858 1506 Z M858 1271 Q633 1271 489 1112 Q355 965 355 745 Q355 512 489 363 Q632 204 859 204 Q1084 204 1227 363 Q1361 512 1361 738 Q1361 965 1227 1112 Q1082 1271 858 1271 Z M548 1630 L548 1877 L777 1877 L777 1630 L548 1630 Z M939 1630 L939 1877 L1168 1877 L1168 1630 L939 1630 Z " />
<glyph glyph-name="Udieresis" unicode="&#xdc;" horiz-adv-x="1453" d="M59 1251 L59 1475 L627 1475 L627 1251 L470 1251 L470 586 Q470 452 487 386 Q532 211 727 211 Q882 211 940 317 Q967 367 977 438 Q984 487 984 586 L984 1251 L827 1251 L827 1475 L1395 1475 L1395 1251 L1254 1251 L1254 628 Q1254 417 1231 313 Q1194 147 1068 59 Q937 -31 727 -31 Q412 -31 284 165 Q224 259 207 411 Q200 479 200 628 L200 1251 L59 1251 Z M417 1630 L417 1877 L646 1877 L646 1630 L417 1630 Z M808 1630 L808 1877 L1037 1877 L1037 1630 L808 1630 Z " />
<glyph glyph-name="aacute" unicode="&#xe1;" horiz-adv-x="1197" d="M742 605 L742 649 Q742 739 716 769 Q673 816 543 816 Q448 816 414 782 Q391 759 384 697 L143 697 Q148 860 228 936 Q320 1026 550 1026 Q842 1026 942 895 Q988 834 1002 731 Q1008 684 1008 594 L1008 224 L1146 224 L1146 0 L774 0 L774 97 Q648 -29 437 -29 Q271 -29 172 43 Q63 122 63 295 Q63 475 192 558 Q282 616 494 616 Q607 616 742 605 Z M749 413 Q628 423 516 423 Q402 423 365 396 Q323 365 323 303 Q323 240 364 214 Q402 189 492 189 Q640 189 710 250 Q738 275 745 305 Q749 320 749 358 L749 413 Z M464 1137 L663 1487 L929 1487 L637 1137 L464 1137 Z " />
<glyph glyph-name="agrave" unicode="&#xe0;" horiz-adv-x="1197" d="M742 605 L742 649 Q742 739 716 769 Q673 816 543 816 Q448 816 414 782 Q391 759 384 697 L143 697 Q148 860 228 936 Q320 1026 550 1026 Q842 1026 942 895 Q988 834 1002 731 Q1008 684 1008 594 L1008 224 L1146 224 L1146 0 L774 0 L774 97 Q648 -29 437 -29 Q271 -29 172 43 Q63 122 63 295 Q63 475 192 558 Q282 616 494 616 Q607 616 742 605 Z M749 413 Q628 423 516 423 Q402 423 365 396 Q323 365 323 303 Q323 240 364 214 Q402 189 492 189 Q640 189 710 250 Q738 275 745 305 Q749 320 749 358 L749 413 Z M556 1137 L265 1487 L531 1487 L730 1137 L556 1137 Z " />
<glyph glyph-name="acircumflex" unicode="&#xe2;" horiz-adv-x="1197" d="M742 605 L742 649 Q742 739 716 769 Q673 816 543 816 Q448 816 414 782 Q391 759 384 697 L143 697 Q148 860 228 936 Q320 1026 550 1026 Q842 1026 942 895 Q988 834 1002 731 Q1008 684 1008 594 L1008 224 L1146 224 L1146 0 L774 0 L774 97 Q648 -29 437 -29 Q271 -29 172 43 Q63 122 63 295 Q63 475 192 558 Q282 616 494 616 Q607 616 742 605 Z M749 413 Q628 423 516 423 Q402 423 365 396 Q323 365 323 303 Q323 240 364 214 Q402 189 492 189 Q640 189 710 250 Q738 275 745 305 Q749 320 749 358 L749 413 Z M561 1334 L407 1137 L236 1137 L446 1487 L677 1487 L886 1137 L714 1137 L561 1334 Z " />
<glyph glyph-name="adieresis" unicode="&#xe4;" horiz-adv-x="1197" d="M742 605 L742 649 Q742 739 716 769 Q673 816 543 816 Q448 816 414 782 Q391 759 384 697 L143 697 Q148 860 228 936 Q320 1026 550 1026 Q842 1026 942 895 Q988 834 1002 731 Q1008 684 1008 594 L1008 224 L1146 224 L1146 0 L774 0 L774 97 Q648 -29 437 -29 Q271 -29 172 43 Q63 122 63 295 Q63 475 192 558 Q282 616 494 616 Q607 616 742 605 Z M749 413 Q628 423 516 423 Q402 423 365 396 Q323 365 323 303 Q323 240 364 214 Q402 189 492 189 Q640 189 710 250 Q738 275 745 305 Q749 320 749 358 L749 413 Z M284 1162 L284 1409 L513 1409 L513 1162 L284 1162 Z M651 1162 L651 1409 L880 1409 L880 1162 L651 1162 Z " />
<glyph glyph-name="atilde" unicode="&#xe3;" horiz-adv-x="1197" d="M742 605 L742 649 Q742 739 716 769 Q673 816 543 816 Q448 816 414 782 Q391 759 384 697 L143 697 Q148 860 228 936 Q320 1026 550 1026 Q842 1026 942 895 Q988 834 1002 731 Q1008 684 1008 594 L1008 224 L1146 224 L1146 0 L774 0 L774 97 Q648 -29 437 -29 Q271 -29 172 43 Q63 122 63 295 Q63 475 192 558 Q282 616 494 616 Q607 616 742 605 Z M749 413 Q628 423 516 423 Q402 423 365 396 Q323 365 323 303 Q323 240 364 214 Q402 189 492 189 Q640 189 710 250 Q738 275 745 305 Q749 320 749 358 L749 413 Z M397 1165 L249 1165 Q284 1410 465 1410 Q510 1410 559 1389 Q580 1380 635 1353 Q673 1334 694 1334 Q739 1334 761 1409 L910 1409 Q891 1302 851 1243 Q796 1159 684 1159 Q640 1159 598 1177 Q579 1185 514 1218 Q481 1234 463 1234 Q422 1234 397 1165 Z " />
<glyph glyph-name="aring" unicode="&#xe5;" horiz-adv-x="1197" d="M742 605 L742 649 Q742 739 716 769 Q673 816 543 816 Q448 816 414 782 Q391 759 384 697 L143 697 Q148 860 228 936 Q320 1026 550 1026 Q842 1026 942 895 Q988 834 1002 731 Q1008 684 1008 594 L1008 224 L1146 224 L1146 0 L774 0 L774 97 Q648 -29 437 -29 Q271 -29 172 43 Q63 122 63 295 Q63 475 192 558 Q282 616 494 616 Q607 616 742 605 Z M749 413 Q628 423 516 423 Q402 423 365 396 Q323 365 323 303 Q323 240 364 214 Q402 189 492 189 Q640 189 710 250 Q738 275 745 305 Q749 320 749 358 L749 413 Z M599 1608 Q725 1608 794 1533 Q856 1466 856 1362 Q856 1257 794 1190 Q725 1115 600 1115 Q473 1115 404 1190 Q342 1257 342 1365 Q342 1467 404 1533 Q475 1608 599 1608 Z M599 1474 Q541 1474 513 1435 Q493 1408 493 1363 Q493 1249 599 1249 Q705 1249 705 1362 Q705 1474 599 1474 Z " />
<glyph glyph-name="ccedilla" unicode="&#xe7;" horiz-adv-x="1035" d="M889 315 L1022 140 Q871 -12 625 -28 L595 -84 Q673 -93 713 -115 Q803 -164 803 -278 Q803 -398 711 -455 Q641 -499 520 -499 Q387 -499 255 -459 L255 -270 Q418 -334 515 -334 Q602 -334 602 -277 Q602 -239 562 -229 Q540 -223 498 -223 Q477 -223 417 -228 L417 -107 L460 -23 Q339 -4 258 52 Q67 182 67 487 Q67 727 184 874 Q305 1028 519 1028 Q654 1028 759 953 L759 999 L953 999 L953 631 L736 631 L736 656 Q736 729 701 760 Q651 805 567 805 Q450 805 389 720 Q331 637 331 499 Q331 356 398 275 Q464 195 585 195 Q705 195 796 245 Q837 267 889 315 Z " />
<glyph glyph-name="eacute" unicode="&#xe9;" horiz-adv-x="1164" d="M1100 413 L336 413 Q351 337 383 294 Q455 195 610 195 Q731 195 846 242 Q893 261 970 304 L1088 110 Q986 50 912 23 Q765 -31 607 -31 Q357 -31 212 111 Q63 257 63 500 Q63 745 211 891 Q351 1028 587 1028 Q803 1028 937 903 Q1057 792 1086 604 Q1098 529 1100 413 Z M824 612 Q783 813 583 813 Q389 813 339 612 L824 612 Z M454 1137 L653 1487 L919 1487 L627 1137 L454 1137 Z " />
<glyph glyph-name="egrave" unicode="&#xe8;" horiz-adv-x="1164" d="M1100 413 L336 413 Q351 337 383 294 Q455 195 610 195 Q731 195 846 242 Q893 261 970 304 L1088 110 Q986 50 912 23 Q765 -31 607 -31 Q357 -31 212 111 Q63 257 63 500 Q63 745 211 891 Q351 1028 587 1028 Q803 1028 937 903 Q1057 792 1086 604 Q1098 529 1100 413 Z M824 612 Q783 813 583 813 Q389 813 339 612 L824 612 Z M583 1137 L292 1487 L558 1487 L757 1137 L583 1137 Z " />
<glyph glyph-name="ecircumflex" unicode="&#xea;" horiz-adv-x="1164" d="M1100 413 L336 413 Q351 337 383 294 Q455 195 610 195 Q731 195 846 242 Q893 261 970 304 L1088 110 Q986 50 912 23 Q765 -31 607 -31 Q357 -31 212 111 Q63 257 63 500 Q63 745 211 891 Q351 1028 587 1028 Q803 1028 937 903 Q1057 792 1086 604 Q1098 529 1100 413 Z M824 612 Q783 813 583 813 Q389 813 339 612 L824 612 Z M591 1334 L437 1137 L266 1137 L476 1487 L707 1487 L916 1137 L744 1137 L591 1334 Z " />
<glyph glyph-name="edieresis" unicode="&#xeb;" horiz-adv-x="1164" d="M1100 413 L336 413 Q351 337 383 294 Q455 195 610 195 Q731 195 846 242 Q893 261 970 304 L1088 110 Q986 50 912 23 Q765 -31 607 -31 Q357 -31 212 111 Q63 257 63 500 Q63 745 211 891 Q351 1028 587 1028 Q803 1028 937 903 Q1057 792 1086 604 Q1098 529 1100 413 Z M824 612 Q783 813 583 813 Q389 813 339 612 L824 612 Z M294 1162 L294 1409 L523 1409 L523 1162 L294 1162 Z M661 1162 L661 1409 L890 1409 L890 1162 L661 1162 Z " />
<glyph glyph-name="iacute" unicode="&#xed;" horiz-adv-x="650" d="M214 224 L214 775 L73 775 L73 999 L474 999 L474 224 L613 224 L613 0 L59 0 L59 224 L214 224 Z M169 1137 L368 1487 L634 1487 L342 1137 L169 1137 Z " />
<glyph glyph-name="igrave" unicode="&#xec;" horiz-adv-x="650" d="M215 224 L215 775 L74 775 L74 999 L475 999 L475 224 L614 224 L614 0 L60 0 L60 224 L215 224 Z M292 1137 L1 1487 L267 1487 L466 1137 L292 1137 Z " />
<glyph glyph-name="icircumflex" unicode="&#xee;" horiz-adv-x="650" d="M214 224 L214 775 L73 775 L73 999 L474 999 L474 224 L613 224 L613 0 L59 0 L59 224 L214 224 Z M305 1334 L151 1137 L-20 1137 L190 1487 L421 1487 L630 1137 L458 1137 L305 1334 Z " />
<glyph glyph-name="idieresis" unicode="&#xef;" horiz-adv-x="650" d="M214 224 L214 775 L73 775 L73 999 L474 999 L474 224 L614 224 L614 0 L59 0 L59 224 L214 224 Z M27 1162 L27 1409 L256 1409 L256 1162 L27 1162 Z M394 1162 L394 1409 L623 1409 L623 1162 L394 1162 Z " />
<glyph glyph-name="ntilde" unicode="&#xf1;" horiz-adv-x="1302" d="M204 224 L204 775 L63 775 L63 999 L464 999 L464 885 Q551 952 595 976 Q688 1028 797 1028 Q987 1028 1059 896 Q1113 797 1113 576 L1113 224 L1250 224 L1250 0 L732 0 L732 224 L853 224 L853 589 Q853 680 834 725 Q804 796 723 796 Q648 796 565 739 Q527 713 464 651 L464 224 L593 224 L593 0 L63 0 L63 224 L204 224 Z M444 1165 L296 1165 Q331 1410 512 1410 Q557 1410 606 1389 Q627 1380 682 1353 Q720 1334 741 1334 Q786 1334 808 1409 L957 1409 Q938 1302 898 1243 Q843 1159 731 1159 Q687 1159 645 1177 Q626 1185 561 1218 Q528 1234 510 1234 Q469 1234 444 1165 Z " />
<glyph glyph-name="oacute" unicode="&#xf3;" horiz-adv-x="1218" d="M609 1028 Q847 1028 996 888 Q1151 743 1151 500 Q1151 256 996 111 Q848 -29 611 -29 Q370 -29 222 111 Q67 257 67 507 Q67 745 222 888 Q373 1028 609 1028 Z M609 804 Q478 804 401 715 Q331 636 331 504 Q331 364 401 284 Q478 195 610 195 Q740 195 817 284 Q887 364 887 500 Q887 637 817 715 Q738 804 609 804 Z M454 1137 L653 1487 L919 1487 L627 1137 L454 1137 Z " />
<glyph glyph-name="ograve" unicode="&#xf2;" horiz-adv-x="1218" d="M609 1028 Q847 1028 996 888 Q1151 743 1151 500 Q1151 256 996 111 Q848 -29 611 -29 Q370 -29 222 111 Q67 257 67 507 Q67 745 222 888 Q373 1028 609 1028 Z M609 804 Q478 804 401 715 Q331 636 331 504 Q331 364 401 284 Q478 195 610 195 Q740 195 817 284 Q887 364 887 500 Q887 637 817 715 Q738 804 609 804 Z M591 1137 L300 1487 L566 1487 L765 1137 L591 1137 Z " />
<glyph glyph-name="ocircumflex" unicode="&#xf4;" horiz-adv-x="1218" d="M609 1028 Q847 1028 996 888 Q1151 743 1151 500 Q1151 256 996 111 Q848 -29 611 -29 Q370 -29 222 111 Q67 257 67 507 Q67 745 222 888 Q373 1028 609 1028 Z M609 804 Q478 804 401 715 Q331 636 331 504 Q331 364 401 284 Q478 195 610 195 Q740 195 817 284 Q887 364 887 500 Q887 637 817 715 Q738 804 609 804 Z M609 1334 L455 1137 L284 1137 L494 1487 L725 1487 L934 1137 L762 1137 L609 1334 Z " />
<glyph glyph-name="odieresis" unicode="&#xf6;" horiz-adv-x="1218" d="M609 1028 Q847 1028 996 888 Q1151 743 1151 500 Q1151 256 996 111 Q848 -29 611 -29 Q370 -29 222 111 Q67 257 67 507 Q67 745 222 888 Q373 1028 609 1028 Z M609 804 Q478 804 401 715 Q331 636 331 504 Q331 364 401 284 Q478 195 610 195 Q740 195 817 284 Q887 364 887 500 Q887 637 817 715 Q738 804 609 804 Z M311 1162 L311 1409 L540 1409 L540 1162 L311 1162 Z M678 1162 L678 1409 L907 1409 L907 1162 L678 1162 Z " />
<glyph glyph-name="otilde" unicode="&#xf5;" horiz-adv-x="1218" d="M609 1028 Q847 1028 996 888 Q1151 743 1151 500 Q1151 256 996 111 Q848 -29 611 -29 Q370 -29 222 111 Q67 257 67 507 Q67 745 222 888 Q373 1028 609 1028 Z M609 804 Q478 804 401 715 Q331 636 331 504 Q331 364 401 284 Q478 195 610 195 Q740 195 817 284 Q887 364 887 500 Q887 637 817 715 Q738 804 609 804 Z M426 1165 L278 1165 Q313 1410 494 1410 Q539 1410 588 1389 Q609 1380 664 1353 Q702 1334 723 1334 Q768 1334 790 1409 L939 1409 Q920 1302 880 1243 Q825 1159 713 1159 Q669 1159 627 1177 Q608 1185 543 1218 Q510 1234 492 1234 Q451 1234 426 1165 Z " />
<glyph glyph-name="uacute" unicode="&#xfa;" horiz-adv-x="1247" d="M189 775 L52 775 L52 999 L449 999 L449 410 Q449 323 461 283 Q480 216 548 216 Q618 216 698 268 Q733 291 794 348 L794 775 L665 775 L665 999 L1052 999 L1052 224 L1193 224 L1193 0 L794 0 L794 114 Q707 51 668 31 Q577 -16 475 -16 Q301 -16 237 113 Q189 210 189 423 L189 775 Z M468 1137 L667 1487 L933 1487 L641 1137 L468 1137 Z " />
<glyph glyph-name="ugrave" unicode="&#xf9;" horiz-adv-x="1247" d="M189 775 L52 775 L52 999 L449 999 L449 410 Q449 323 461 283 Q480 216 548 216 Q618 216 698 268 Q733 291 794 348 L794 775 L665 775 L665 999 L1052 999 L1052 224 L1193 224 L1193 0 L794 0 L794 114 Q707 51 668 31 Q577 -16 475 -16 Q301 -16 237 113 Q189 210 189 423 L189 775 Z M599 1137 L308 1487 L574 1487 L773 1137 L599 1137 Z " />
<glyph glyph-name="ucircumflex" unicode="&#xfb;" horiz-adv-x="1247" d="M189 775 L52 775 L52 999 L449 999 L449 410 Q449 323 461 283 Q480 216 548 216 Q618 216 698 268 Q733 291 794 348 L794 775 L665 775 L665 999 L1052 999 L1052 224 L1193 224 L1193 0 L794 0 L794 114 Q707 51 668 31 Q577 -16 475 -16 Q301 -16 237 113 Q189 210 189 423 L189 775 Z M595 1334 L441 1137 L270 1137 L480 1487 L711 1487 L920 1137 L748 1137 L595 1334 Z " />
<glyph glyph-name="udieresis" unicode="&#xfc;" horiz-adv-x="1247" d="M189 775 L52 775 L52 999 L449 999 L449 410 Q449 323 461 283 Q480 216 548 216 Q618 216 698 268 Q733 291 794 348 L794 775 L665 775 L665 999 L1052 999 L1052 224 L1193 224 L1193 0 L794 0 L794 114 Q707 51 668 31 Q577 -16 475 -16 Q301 -16 237 113 Q189 210 189 423 L189 775 Z M309 1162 L309 1409 L538 1409 L538 1162 L309 1162 Z M676 1162 L676 1409 L905 1409 L905 1162 L676 1162 Z " />
<glyph glyph-name="dagger" unicode="&#x2020;" horiz-adv-x="1147" d="M458 872 L151 872 L151 1077 L458 1077 L458 1475 L689 1475 L689 1077 L996 1077 L996 872 L689 872 L689 -202 L458 -202 L458 872 Z " />
<glyph glyph-name="degree" unicode="&#xb0;" horiz-adv-x="779" d="M390 1385 Q300 1385 254 1321 Q223 1279 223 1212 Q223 1141 254 1099 Q300 1035 391 1035 Q480 1035 526 1099 Q557 1141 557 1210 Q557 1278 526 1321 Q480 1385 390 1385 Z M390 1543 Q556 1543 651 1440 Q735 1349 735 1211 Q735 1072 651 981 Q557 878 391 878 Q223 878 129 981 Q45 1072 45 1215 Q45 1351 129 1440 Q226 1543 390 1543 Z " />
<glyph glyph-name="cent" unicode="&#xa2;" horiz-adv-x="1147" d="M539 301 Q399 318 306 374 Q89 506 89 818 Q89 1007 172 1140 Q269 1296 438 1334 Q479 1343 539 1350 L539 1619 L703 1619 L703 1342 Q792 1323 865 1266 L865 1326 L1046 1326 L1046 958 L835 958 L835 983 Q835 1057 796 1088 Q763 1115 703 1127 L703 524 Q778 532 838 557 Q895 580 962 642 L1095 467 Q1007 378 899 338 Q817 308 703 299 L703 -30 L539 -30 L539 301 Z M539 540 L539 1118 Q353 1058 353 831 Q353 675 447 592 Q478 564 539 540 Z " />
<glyph glyph-name="sterling" unicode="&#xa3;" horiz-adv-x="1147" d="M57 -26 L57 232 Q158 253 202 304 Q261 372 261 521 Q261 560 252 629 L57 629 L57 823 L220 823 Q186 970 186 1087 Q186 1291 300 1400 Q407 1504 583 1504 Q705 1504 793 1449 Q820 1433 859 1399 L859 1475 L1063 1475 L1063 1021 L835 1021 L835 1039 Q835 1126 797 1186 Q740 1276 614 1276 Q533 1276 486 1230 Q438 1182 438 1088 Q438 995 482 823 L760 823 L760 629 L515 629 L517 612 Q525 526 525 486 Q525 382 486 281 Q619 211 723 211 Q829 211 874 288 Q900 332 909 410 L1158 410 Q1108 -29 736 -29 Q553 -29 375 90 Q318 33 251 6 Q178 -24 57 -26 Z " />
<glyph glyph-name="section" unicode="&#xa7;" horiz-adv-x="1147" d="M209 -219 L209 144 L413 144 L413 -12 L511 -12 Q663 -12 663 80 Q663 121 623 163 Q587 200 550 231 L298 444 Q219 511 182 558 Q120 638 120 729 Q120 920 350 990 Q314 1040 299 1070 Q267 1137 267 1211 Q267 1360 427 1429 Q536 1475 778 1475 L940 1475 L940 1110 L738 1110 L738 1271 L693 1271 Q505 1271 505 1193 Q505 1157 539 1119 Q570 1084 628 1033 L889 804 Q1075 640 1075 483 Q1075 356 970 279 Q923 244 858 224 Q924 127 924 46 Q924 -94 798 -163 Q694 -219 513 -219 L209 -219 Z M749 613 L570 765 Q483 840 436 840 Q395 840 369 810 Q347 784 347 749 Q347 709 382 671 Q396 656 437 620 L593 481 Q697 389 763 389 Q809 389 830 421 Q846 445 846 475 Q846 530 749 613 Z " />
<glyph glyph-name="bullet" unicode="&#x2022;" horiz-adv-x="1147" d="M295 472 L295 1046 L852 1046 L852 472 L295 472 Z " />
<glyph glyph-name="paragraph" unicode="&#xb6;" horiz-adv-x="1358" d="M450 -198 L450 615 Q292 630 198 703 Q49 820 49 1045 Q49 1247 169 1363 Q241 1433 344 1460 Q413 1478 541 1478 L1206 1478 L1206 1254 L1089 1254 L1089 -198 L1258 -198 L1258 -422 L310 -422 L310 -198 L450 -198 Z M676 -198 L863 -198 L863 1254 L676 1254 L676 -198 Z " />
<glyph glyph-name="germandbls" unicode="&#xdf;" horiz-adv-x="1325" d="M204 224 L204 775 L63 775 L63 999 L204 999 L204 1073 Q204 1290 342 1401 Q470 1504 684 1504 Q898 1504 1028 1398 Q1140 1307 1140 1147 Q1140 955 961 862 Q1064 833 1136 759 Q1252 640 1252 433 Q1252 196 1124 74 Q1015 -29 809 -29 Q733 -29 650 -16 L678 211 Q738 197 785 197 Q903 197 953 288 Q988 350 988 450 Q988 625 872 691 Q819 721 727 727 Q697 730 632 730 L632 938 Q725 939 785 965 Q843 991 872 1046 Q890 1078 890 1120 Q890 1203 837 1246 Q780 1293 682 1293 Q566 1293 511 1226 Q464 1169 464 1080 L464 224 L567 224 L567 0 L63 0 L63 224 L204 224 Z " />
<glyph glyph-name="registered" unicode="&#xae;" horiz-adv-x="1304" d="M460 1042 L460 1358 L406 1358 L406 1475 L676 1475 Q782 1475 828 1448 Q902 1403 902 1309 Q902 1224 829 1180 Q850 1157 866 1110 L889 1042 L945 1042 L945 925 L766 925 L739 1033 Q725 1088 708 1108 Q692 1128 634 1128 L606 1128 L606 1042 L670 1042 L670 925 L406 925 L406 1042 L460 1042 Z M606 1236 L651 1236 Q709 1236 731 1251 Q754 1266 754 1303 Q754 1336 731 1348 Q711 1358 662 1358 L606 1358 L606 1236 Z M652 1785 Q897 1785 1067 1610 Q1232 1440 1232 1194 Q1232 949 1067 778 Q898 603 653 603 Q406 603 237 778 Q72 949 72 1201 Q72 1359 150 1496 Q233 1641 384 1720 Q506 1785 652 1785 Z M652 1638 Q469 1638 344 1505 Q229 1382 229 1200 Q229 1007 344 883 Q468 750 653 750 Q836 750 960 883 Q1075 1007 1075 1194 Q1075 1385 960 1505 Q832 1638 652 1638 Z " />
<glyph glyph-name="copyright" unicode="&#xa9;" horiz-adv-x="1746" d="M1176 1076 L1176 849 L1012 849 L1012 948 Q948 968 899 968 Q797 968 740 900 Q685 833 685 731 Q685 624 746 559 Q802 500 893 500 Q1015 500 1121 578 L1214 459 Q1158 413 1107 389 Q1016 344 894 344 Q712 344 604 454 Q500 559 500 731 Q500 908 614 1018 Q720 1121 901 1121 Q1022 1121 1176 1076 Z M874 1539 Q1206 1539 1436 1302 Q1661 1071 1661 738 Q1661 405 1436 173 Q1207 -64 875 -64 Q540 -64 310 173 Q86 405 86 748 Q86 961 192 1146 Q305 1343 510 1451 Q676 1539 874 1539 Z M874 1343 Q623 1343 454 1161 Q297 994 297 746 Q297 482 454 314 Q622 132 875 132 Q1125 132 1293 314 Q1450 482 1450 738 Q1450 998 1293 1161 Q1120 1343 874 1343 Z " />
<glyph glyph-name="trademark" unicode="&#x2122;" horiz-adv-x="1609" d="M262 908 L262 1336 L185 1336 L185 1248 L28 1248 L28 1475 L670 1475 L670 1248 L513 1248 L513 1336 L437 1336 L437 908 L542 908 L542 769 L156 769 L156 908 L262 908 Z M731 908 L769 1336 L700 1336 L700 1475 L995 1475 L1110 1106 Q1111 1101 1123 1061 Q1132 1095 1135 1106 L1250 1475 L1545 1475 L1545 1336 L1476 1336 L1514 908 L1569 908 L1569 769 L1280 769 L1280 908 L1343 908 L1321 1228 L1179 769 L1066 769 L924 1228 L902 908 L965 908 L965 769 L676 769 L676 908 L731 908 Z " />
<glyph glyph-name="acute" unicode="&#xb4;" horiz-adv-x="1024" d="M357 1137 L556 1487 L822 1487 L530 1137 L357 1137 Z " />
<glyph glyph-name="dieresis" unicode="&#xa8;" horiz-adv-x="1024" d="M214 1162 L214 1409 L443 1409 L443 1162 L214 1162 Z M581 1162 L581 1409 L810 1409 L810 1162 L581 1162 Z " />
<glyph glyph-name="notequal" unicode="&#x2260;" horiz-adv-x="1147" d="M144 816 L144 1043 L600 1043 L716 1283 L910 1182 L843 1043 L1002 1043 L1002 816 L733 816 L656 655 L1002 655 L1002 428 L546 428 L430 189 L236 290 L302 428 L144 428 L144 655 L412 655 L490 816 L144 816 Z " />
<glyph glyph-name="AE" unicode="&#xc6;" horiz-adv-x="1988" d="M938 446 L438 446 L319 224 L468 224 L468 0 L-83 0 L-83 224 L38 224 L588 1251 L445 1251 L445 1475 L1916 1475 L1916 1069 L1682 1069 L1682 1251 L1208 1251 L1208 883 L1665 883 L1665 659 L1208 659 L1208 224 L1685 224 L1685 454 L1919 454 L1919 0 L786 0 L786 224 L938 224 L938 446 Z M938 660 L938 1251 L851 1251 L545 660 L938 660 Z " />
<glyph glyph-name="Oslash" unicode="&#xd8;" horiz-adv-x="1716" d="M292 194 Q76 418 76 739 Q76 1017 239 1222 Q356 1369 534 1444 Q683 1507 853 1507 Q1083 1507 1276 1391 L1408 1551 L1651 1551 L1424 1274 Q1631 1047 1631 738 Q1631 459 1468 254 Q1351 107 1173 32 Q1024 -31 852 -31 Q641 -31 442 80 L297 -97 L53 -97 L292 194 Z M459 397 L1118 1199 Q989 1272 855 1272 Q629 1272 484 1112 Q350 964 350 738 Q350 618 393 511 Q420 445 459 397 Z M1255 1069 L600 272 Q725 204 856 204 Q1078 204 1223 364 Q1357 512 1357 738 Q1357 862 1315 960 Q1298 1001 1255 1069 Z " />
<glyph glyph-name="infinity" unicode="&#x221e;" horiz-adv-x="1679" d="M839 572 Q683 374 467 374 Q294 374 198 476 Q110 569 110 716 Q110 865 198 957 Q295 1059 468 1059 Q683 1059 839 861 Q899 937 952 975 Q1067 1059 1210 1059 Q1383 1059 1480 957 Q1568 865 1568 716 Q1568 569 1480 476 Q1383 374 1211 374 Q1056 374 935 472 Q891 506 839 572 Z M746 717 L729 736 Q604 883 483 883 Q404 883 354 836 Q305 790 305 717 Q305 642 355 596 Q405 550 483 550 Q561 550 634 605 Q668 630 727 696 L746 717 Z M932 717 L951 696 Q1011 629 1049 601 Q1121 550 1194 550 Q1273 550 1324 596 Q1373 641 1373 717 Q1373 791 1324 836 Q1274 883 1194 883 Q1075 883 949 736 L932 717 Z " />
<glyph glyph-name="plusminus" unicode="&#xb1;" horiz-adv-x="1147" d="M144 723 L144 950 L459 950 L459 1292 L686 1292 L686 950 L1002 950 L1002 723 L686 723 L686 381 L459 381 L459 723 L144 723 Z M144 0 L144 227 L1002 227 L1002 0 L144 0 Z " />
<glyph glyph-name="lessequal" unicode="&#x2264;" horiz-adv-x="1147" d="M399 837 L1003 547 L1003 298 L138 753 L138 920 L1003 1376 L1003 1127 L399 837 Z M145 0 L145 227 L1003 227 L1003 0 L145 0 Z " />
<glyph glyph-name="greaterequal" unicode="&#x2265;" horiz-adv-x="1147" d="M747 837 L144 1127 L144 1376 L1009 920 L1009 753 L144 298 L144 547 L747 837 Z M144 0 L144 227 L1002 227 L1002 0 L144 0 Z " />
<glyph glyph-name="yen" unicode="&#xa5;" horiz-adv-x="1147" d="M437 207 L437 373 L87 373 L87 537 L437 537 L437 639 L87 639 L87 803 L344 803 L52 1251 L-54 1251 L-54 1475 L488 1475 L488 1251 L370 1251 L588 896 L806 1251 L689 1251 L689 1475 L1202 1475 L1202 1251 L1087 1251 L801 803 L1060 803 L1060 639 L707 639 L707 537 L1060 537 L1060 373 L707 373 L707 207 L897 207 L897 0 L248 0 L248 207 L437 207 Z " />
<glyph glyph-name="mu" unicode="&#xb5;" horiz-adv-x="1245" d="M51 775 L51 999 L452 999 L452 406 Q452 324 464 283 Q482 216 551 216 Q620 216 700 268 Q734 291 797 348 L797 775 L667 775 L667 999 L1055 999 L1055 224 L1196 224 L1196 0 L797 0 L797 114 Q722 53 684 31 Q603 -16 517 -16 Q484 -16 452 -4 L452 -198 L620 -198 L620 -422 L51 -422 L51 -198 L192 -198 L192 775 L51 775 Z " />
<glyph glyph-name="partialdiff" unicode="&#x2202;" horiz-adv-x="1147" d="M283 1383 L431 1520 Q549 1432 619 1370 Q739 1264 854 1120 Q958 989 1014 863 Q1090 694 1090 507 Q1090 245 943 106 Q800 -29 574 -29 Q346 -29 204 106 Q57 247 57 482 Q57 717 204 862 Q338 995 535 995 Q609 995 656 972 Q675 963 706 941 Q618 1072 530 1163 Q442 1254 283 1383 Z M573 780 Q455 780 384 695 Q321 619 321 487 Q321 357 384 280 Q455 195 574 195 Q693 195 764 280 Q827 357 827 484 Q827 620 764 695 Q692 780 573 780 Z " />
<glyph glyph-name="summation" unicode="&#x2211;" horiz-adv-x="1307" d="M576 645 L101 1366 L101 1572 L1224 1572 L1224 1160 L990 1160 L990 1361 L407 1361 L880 647 L374 -145 L1013 -145 L1013 85 L1247 85 L1247 -356 L73 -356 L73 -146 L576 645 Z " />
<glyph glyph-name="product" unicode="&#x220f;" horiz-adv-x="1477" d="M220 -132 L220 1348 L79 1348 L79 1572 L1397 1572 L1397 1348 L1256 1348 L1256 -132 L1397 -132 L1397 -356 L844 -356 L844 -132 L986 -132 L986 1348 L490 1348 L490 -132 L631 -132 L631 -356 L79 -356 L79 -132 L220 -132 Z " />
<glyph glyph-name="integral" unicode="&#x222b;" horiz-adv-x="877" d="M64 -333 L110 -127 Q162 -150 201 -150 Q278 -150 301 -91 Q314 -58 314 120 L314 1032 Q314 1182 318 1257 Q335 1577 624 1577 Q703 1577 811 1548 L765 1342 Q713 1367 673 1367 Q597 1367 574 1307 Q561 1274 561 1120 L561 185 Q561 -1 551 -82 Q534 -232 438 -302 Q358 -360 233 -360 Q151 -360 64 -333 Z " />
<glyph glyph-name="ordfeminine" unicode="&#xaa;" horiz-adv-x="805" d="M503 817 L503 880 Q458 837 415 821 Q357 800 289 800 Q53 800 53 1009 Q53 1131 139 1182 Q199 1217 329 1217 Q345 1217 425 1214 L469 1213 L469 1242 Q469 1298 438 1320 Q408 1340 334 1340 Q250 1340 158 1307 L106 1469 Q231 1506 349 1506 Q575 1506 641 1391 Q676 1330 676 1199 L676 987 L759 987 L759 817 L503 817 Z M469 1076 Q405 1081 353 1081 Q300 1081 281 1066 Q260 1050 260 1013 Q260 947 339 947 Q413 947 451 988 Q469 1007 469 1038 L469 1076 Z " />
<glyph glyph-name="ordmasculine" unicode="&#xba;" horiz-adv-x="805" d="M402 1506 Q569 1506 667 1416 Q772 1320 772 1153 Q772 987 667 891 Q569 801 403 801 Q235 801 137 891 Q32 987 32 1158 Q32 1321 137 1416 Q236 1506 402 1506 Z M402 1336 Q320 1336 279 1282 Q241 1231 241 1156 Q241 1076 279 1026 Q320 971 402 971 Q484 971 525 1026 Q563 1076 563 1154 Q563 1232 525 1282 Q483 1336 402 1336 Z " />
<glyph glyph-name="uni2126" unicode="&#x2126;" horiz-adv-x="1767" d="M26 0 L26 355 L224 355 L224 204 L478 204 Q368 267 308 324 Q123 499 123 778 Q123 1042 283 1237 Q397 1375 571 1446 Q717 1506 883 1506 Q1129 1506 1324 1380 Q1508 1260 1590 1058 Q1644 926 1644 778 Q1644 499 1460 324 Q1400 267 1290 204 L1544 204 L1544 355 L1741 355 L1741 0 L1022 0 L1022 305 Q1165 358 1238 431 Q1370 565 1370 779 Q1370 987 1240 1124 Q1102 1271 884 1271 Q666 1271 527 1124 Q398 987 398 779 Q398 565 530 431 Q602 357 745 305 L745 0 L26 0 Z " />
<glyph glyph-name="ae" unicode="&#xe6;" horiz-adv-x="1833" d="M742 605 L742 640 Q742 718 712 756 Q666 815 544 815 Q453 815 418 780 Q393 756 384 697 L150 697 Q159 862 236 938 Q326 1028 533 1028 Q811 1028 896 872 Q1038 1028 1269 1028 Q1487 1028 1617 899 Q1731 787 1757 601 Q1767 531 1770 413 L1005 413 Q1020 338 1053 294 Q1125 195 1280 195 Q1401 195 1515 242 Q1562 261 1639 304 L1758 110 Q1656 49 1588 23 Q1446 -31 1295 -31 Q1033 -31 896 135 Q725 -29 443 -29 Q63 -29 63 293 Q63 475 190 558 Q279 617 487 617 Q612 617 742 605 Z M749 413 Q636 424 516 424 Q403 424 365 396 Q323 366 323 304 Q323 241 364 214 Q402 189 491 189 Q642 189 710 250 Q738 275 745 305 Q749 320 749 357 L749 413 Z M1494 612 Q1453 813 1253 813 Q1057 813 1009 612 L1494 612 Z " />
<glyph glyph-name="oslash" unicode="&#xf8;" horiz-adv-x="1218" d="M204 125 Q154 180 129 226 Q64 344 64 502 Q64 742 219 888 Q368 1028 605 1028 Q746 1028 870 972 L924 1040 L1140 1040 L1009 873 Q1148 724 1148 497 Q1148 256 993 111 Q845 -29 608 -29 Q470 -29 344 27 L257 -83 L40 -83 L204 125 Z M368 333 L720 781 Q658 804 609 804 Q474 804 398 715 Q328 634 328 505 Q328 415 368 333 Z M846 664 L493 217 Q565 195 607 195 Q737 195 814 284 Q884 364 884 492 Q884 577 846 664 Z " />
<glyph glyph-name="questiondown" unicode="&#xbf;" horiz-adv-x="1037" d="M683 1431 L683 1138 L406 1138 L406 1431 L683 1431 Z M667 1001 L667 435 Q529 434 465 407 Q338 352 338 215 Q338 127 392 72 Q447 17 531 17 Q644 17 697 117 Q722 164 732 263 L974 263 Q964 91 902 -13 Q783 -211 523 -211 Q322 -211 197 -90 Q74 30 74 226 Q74 397 177 505 Q265 596 425 623 L425 1001 L667 1001 Z " />
<glyph glyph-name="exclamdown" unicode="&#xa1;" horiz-adv-x="696" d="M194 -177 L228 999 L463 999 L497 -177 L194 -177 Z M207 1138 L207 1431 L484 1431 L484 1138 L207 1138 Z " />
<glyph glyph-name="logicalnot" unicode="&#xac;" horiz-adv-x="1147" d="M144 632 L144 849 L953 849 L953 280 L725 280 L725 632 L144 632 Z " />
<glyph glyph-name="radical" unicode="&#x221a;" horiz-adv-x="1303" d="M422 0 L231 576 L84 576 L84 787 L425 787 L568 282 L1016 1839 L1607 1839 L1607 1626 L1211 1626 L720 0 L422 0 Z " />
<glyph glyph-name="florin" unicode="&#x192;" horiz-adv-x="1147" d="M209 694 L209 900 L451 900 L485 1095 Q523 1315 597 1405 Q680 1506 836 1506 Q931 1506 1050 1455 L1006 1254 Q909 1295 870 1295 Q810 1295 777 1230 Q757 1190 740 1095 L705 900 L893 900 L893 694 L671 694 L579 150 Q544 -64 488 -164 Q399 -326 209 -326 Q117 -326 -2 -282 L40 -66 Q117 -101 168 -101 Q241 -101 283 -12 Q312 51 338 206 L417 694 L209 694 Z " />
<glyph glyph-name="approxequal" unicode="&#x2248;" horiz-adv-x="1147" d="M193 360 L57 534 Q125 611 177 653 Q278 733 382 733 Q461 733 543 695 Q566 684 682 616 Q713 597 760 597 Q844 597 954 727 L1089 555 Q1020 474 965 432 Q865 354 766 354 Q693 354 605 394 Q586 402 472 464 Q430 487 384 487 Q323 487 256 425 Q232 402 193 360 Z M193 745 L57 919 Q123 994 177 1038 Q277 1118 383 1118 Q462 1118 543 1080 Q566 1069 682 1001 Q714 982 760 982 Q844 982 954 1113 L1089 940 Q1021 860 965 817 Q865 739 766 739 Q692 739 605 778 Q586 787 472 849 Q431 872 384 872 Q323 872 256 810 Q231 787 193 745 Z " />
<glyph glyph-name="Delta" unicode="&#x2206;" horiz-adv-x="1470" d="M1455 0 L15 0 L595 1475 L873 1475 L1455 0 Z M1094 224 L733 1206 L375 224 L1094 224 Z " />
<glyph glyph-name="guillemotleft" unicode="&#xab;" horiz-adv-x="962" d="M338 479 L508 143 L318 63 L117 479 L319 896 L508 813 L338 479 Z M675 479 L845 143 L655 63 L454 479 L655 896 L845 813 L675 479 Z " />
<glyph glyph-name="guillemotright" unicode="&#xbb;" horiz-adv-x="962" d="M624 479 L453 813 L641 896 L845 479 L641 63 L453 143 L624 479 Z M287 479 L117 813 L307 896 L508 479 L307 63 L117 143 L287 479 Z " />
<glyph glyph-name="ellipsis" unicode="&#x2026;" horiz-adv-x="1682" d="M164 0 L164 297 L441 297 L441 0 L164 0 Z M703 0 L703 297 L980 297 L980 0 L703 0 Z M1242 0 L1242 297 L1519 297 L1519 0 L1242 0 Z " />
<glyph glyph-name="Agrave" unicode="&#xc0;" horiz-adv-x="1470" d="M1020 421 L448 421 L374 224 L516 224 L516 0 L-12 0 L-12 224 L102 224 L594 1475 L873 1475 L1366 224 L1481 224 L1481 0 L952 0 L952 224 L1094 224 L1020 421 Z M938 638 L733 1206 L529 638 L938 638 Z M683 1606 L399 1948 L665 1948 L857 1606 L683 1606 Z " />
<glyph glyph-name="Atilde" unicode="&#xc3;" horiz-adv-x="1470" d="M1020 421 L448 421 L374 224 L516 224 L516 0 L-12 0 L-12 224 L102 224 L594 1475 L873 1475 L1366 224 L1481 224 L1481 0 L952 0 L952 224 L1094 224 L1020 421 Z M938 638 L733 1206 L529 638 L938 638 Z M564 1634 L404 1634 Q441 1878 638 1878 Q686 1878 739 1857 Q764 1848 821 1822 Q862 1803 886 1803 Q935 1803 957 1878 L1119 1878 Q1099 1772 1055 1712 Q995 1628 875 1628 Q825 1628 782 1645 Q763 1653 690 1686 Q654 1702 636 1702 Q591 1702 564 1634 Z " />
<glyph glyph-name="Otilde" unicode="&#xd5;" horiz-adv-x="1716" d="M858 1506 Q1109 1506 1308 1372 Q1497 1245 1580 1033 Q1635 894 1635 738 Q1635 459 1472 254 Q1355 107 1177 32 Q1029 -31 860 -31 Q606 -31 408 103 Q219 230 136 443 Q81 582 81 747 Q81 923 157 1083 Q256 1293 472 1411 Q646 1506 858 1506 Z M858 1271 Q633 1271 489 1112 Q355 965 355 745 Q355 512 489 363 Q632 204 859 204 Q1084 204 1227 363 Q1361 512 1361 738 Q1361 965 1227 1112 Q1082 1271 858 1271 Z M687 1634 L527 1634 Q564 1878 761 1878 Q809 1878 862 1857 Q887 1848 944 1822 Q985 1803 1009 1803 Q1058 1803 1080 1878 L1242 1878 Q1222 1772 1178 1712 Q1118 1628 998 1628 Q948 1628 905 1645 Q886 1653 813 1686 Q777 1702 759 1702 Q714 1702 687 1634 Z " />
<glyph glyph-name="OE" unicode="&#x152;" horiz-adv-x="2092" d="M1312 224 L1789 224 L1789 454 L2023 454 L2023 0 L1285 0 Q1240 0 1123 -8 Q959 -18 875 -18 Q664 -18 522 36 Q308 117 190 311 Q79 494 79 738 Q79 1077 302 1292 Q414 1400 556 1449 Q685 1493 870 1493 Q950 1493 1112 1483 Q1235 1475 1303 1475 L2020 1475 L2020 1069 L1786 1069 L1786 1251 L1312 1251 L1312 883 L1770 883 L1770 659 L1312 659 L1312 224 Z M1042 222 L1042 1251 Q961 1266 874 1266 Q631 1266 485 1115 Q353 978 353 743 Q353 470 529 327 Q674 209 890 209 Q961 209 1042 222 Z " />
<glyph glyph-name="oe" unicode="&#x153;" horiz-adv-x="1988" d="M1017 177 Q968 113 930 81 Q799 -29 591 -29 Q360 -29 217 111 Q67 257 67 500 Q67 743 217 888 Q361 1028 592 1028 Q793 1028 925 921 Q969 885 1017 823 Q1059 884 1102 921 Q1227 1028 1429 1028 Q1638 1028 1768 902 Q1881 793 1910 607 Q1922 530 1924 413 L1160 413 Q1176 337 1207 294 Q1279 195 1435 195 Q1555 195 1670 242 Q1717 261 1794 304 L1912 110 Q1814 50 1742 23 Q1600 -31 1447 -31 Q1228 -31 1097 85 Q1057 120 1017 177 Z M608 804 Q478 804 401 716 Q331 636 331 500 Q331 364 401 284 Q478 195 609 195 Q740 195 817 284 Q887 364 887 496 Q887 637 817 716 Q738 804 608 804 Z M1649 612 Q1607 813 1407 813 Q1213 813 1164 612 L1649 612 Z " />
<glyph glyph-name="endash" unicode="&#x2013;" horiz-adv-x="1024" d="M82 471 L82 671 L942 671 L942 471 L82 471 Z " />
<glyph glyph-name="emdash" unicode="&#x2014;" horiz-adv-x="1024" d="M-123 471 L-123 671 L1147 671 L1147 471 L-123 471 Z " />
<glyph glyph-name="quotedblleft" unicode="&#x201c;" horiz-adv-x="991" d="M68 958 L281 1475 L530 1475 L354 958 L68 958 Z M435 958 L649 1475 L898 1475 L721 958 L435 958 Z " />
<glyph glyph-name="quotedblright" unicode="&#x201d;" horiz-adv-x="991" d="M64 958 L241 1475 L527 1475 L313 958 L64 958 Z M432 958 L608 1475 L894 1475 L681 958 L432 958 Z " />
<glyph glyph-name="quoteleft" unicode="&#x2018;" horiz-adv-x="605" d="M57 958 L270 1475 L521 1475 L342 958 L57 958 Z " />
<glyph glyph-name="quoteright" unicode="&#x2019;" horiz-adv-x="605" d="M54 958 L233 1475 L518 1475 L305 958 L54 958 Z " />
<glyph glyph-name="divide" unicode="&#xf7;" horiz-adv-x="1147" d="M144 622 L144 849 L1002 849 L1002 622 L144 622 Z M448 990 L448 1260 L698 1260 L698 990 L448 990 Z M448 219 L448 489 L698 489 L698 219 L448 219 Z " />
<glyph glyph-name="lozenge" unicode="&#x25ca;" horiz-adv-x="1147" d="M-18 704 L573 1452 L1165 704 L573 -44 L-18 704 Z M284 704 L573 341 L863 704 L573 1067 L284 704 Z " />
<glyph glyph-name="ydieresis" unicode="&#xff;" horiz-adv-x="1122" d="M106 775 L16 775 L16 999 L510 999 L510 775 L382 775 L515 458 Q540 400 569 309 Q600 392 641 487 L767 775 L633 775 L633 999 L1131 999 L1131 775 L1032 775 L638 -63 Q580 -185 546 -245 Q469 -377 334 -407 Q269 -421 153 -422 L153 -198 Q246 -198 282 -179 Q335 -152 389 -37 L431 50 L106 775 Z M291 1162 L291 1409 L520 1409 L520 1162 L291 1162 Z M658 1162 L658 1409 L887 1409 L887 1162 L658 1162 Z " />
<glyph glyph-name="Ydieresis" unicode="&#x178;" horiz-adv-x="1282" d="M501 224 L501 673 L116 1251 L10 1251 L10 1475 L552 1475 L552 1251 L434 1251 L652 896 L870 1251 L753 1251 L753 1475 L1265 1475 L1265 1251 L1151 1251 L771 668 L771 224 L961 224 L961 0 L312 0 L312 224 L501 224 Z M345 1630 L345 1877 L574 1877 L574 1630 L345 1630 Z M736 1630 L736 1877 L965 1877 L965 1630 L736 1630 Z " />
<glyph glyph-name="fraction" unicode="&#x2044;" horiz-adv-x="287" d="M-332 0 L412 1475 L618 1475 L-126 0 L-332 0 Z " />
<glyph glyph-name="Euro" unicode="&#x20ac;" horiz-adv-x="1444" d="M47 490 L47 654 L205 654 Q203 693 203 720 Q203 741 204 766 L47 766 L47 930 L220 930 Q259 1141 375 1287 Q550 1506 835 1506 Q997 1506 1133 1413 L1133 1475 L1350 1475 L1350 1021 L1116 1021 L1116 1039 Q1116 1120 1070 1178 Q995 1271 854 1271 Q683 1271 584 1128 Q525 1042 499 930 L1004 930 L1004 766 L479 766 Q478 744 478 721 Q478 689 480 654 L914 654 L914 490 L514 490 Q552 388 592 337 Q691 211 866 211 Q1006 211 1118 287 Q1163 318 1234 395 L1394 206 Q1302 98 1202 47 Q1054 -31 858 -31 Q534 -31 364 183 Q266 307 226 490 L47 490 Z " />
<glyph glyph-name="guilsinglleft" unicode="&#x2039;" horiz-adv-x="626" d="M338 479 L508 143 L318 63 L117 479 L319 896 L508 813 L338 479 Z " />
<glyph glyph-name="guilsinglright" unicode="&#x203a;" horiz-adv-x="626" d="M287 479 L117 813 L307 896 L508 479 L307 63 L117 143 L287 479 Z " />
<glyph glyph-name="fi" unicode="&#xfb01;" horiz-adv-x="1405" d="M206 224 L206 775 L58 775 L58 999 L206 1013 L206 1089 Q206 1297 296 1393 Q387 1491 591 1491 Q686 1491 777 1475 L762 1261 Q683 1275 627 1275 Q521 1275 488 1205 Q466 1158 466 1066 L466 999 L708 999 L708 775 L466 775 L466 224 L684 224 L684 0 L58 0 L58 224 L206 224 Z M969 224 L969 775 L828 775 L828 999 L1229 999 L1229 224 L1368 224 L1368 0 L814 0 L814 224 L969 224 Z M965 1136 L965 1413 L1232 1413 L1232 1136 L965 1136 Z " />
<glyph glyph-name="fl" unicode="&#xfb02;" horiz-adv-x="1424" d="M206 224 L206 775 L58 775 L58 999 L206 1013 L206 1089 Q206 1297 296 1393 Q387 1491 591 1491 Q686 1491 777 1475 L762 1261 Q683 1275 627 1275 Q521 1275 488 1205 Q466 1158 466 1066 L466 999 L708 999 L708 775 L466 775 L466 224 L684 224 L684 0 L58 0 L58 224 L206 224 Z M988 224 L988 1251 L847 1251 L847 1475 L1248 1475 L1248 224 L1387 224 L1387 0 L833 0 L833 224 L988 224 Z " />
<glyph glyph-name="daggerdbl" unicode="&#x2021;" horiz-adv-x="1147" d="M458 906 L151 906 L151 1112 L458 1112 L458 1508 L689 1508 L689 1112 L996 1112 L996 907 L689 907 L689 434 L996 434 L996 220 L689 220 L689 -168 L458 -168 L458 222 L151 222 L151 436 L458 436 L458 906 Z " />
<glyph glyph-name="periodcentered" unicode="&#xb7;" horiz-adv-x="574" d="M148 422 L148 719 L425 719 L425 422 L148 422 Z " />
<glyph glyph-name="quotesinglbase" unicode="&#x201a;" horiz-adv-x="605" d="M54 -222 L233 295 L518 295 L305 -222 L54 -222 Z " />
<glyph glyph-name="quotedblbase" unicode="&#x201e;" horiz-adv-x="991" d="M64 -221 L241 296 L527 296 L313 -221 L64 -221 Z M431 -221 L608 296 L894 296 L681 -221 L431 -221 Z " />
<glyph glyph-name="perthousand" unicode="&#x2030;" horiz-adv-x="2618" d="M447 1506 Q628 1506 740 1380 Q829 1280 829 1139 Q829 999 740 898 Q628 772 448 772 Q266 772 154 898 Q65 999 65 1143 Q65 1282 154 1380 Q269 1506 447 1506 Z M447 1303 Q377 1303 335 1257 Q292 1210 292 1141 Q292 1067 335 1020 Q377 974 447 974 Q517 974 559 1021 Q602 1068 602 1139 Q602 1209 559 1257 Q517 1303 447 1303 Z M329 0 L1237 1475 L1443 1475 L535 0 L329 0 Z M1325 702 Q1506 702 1618 576 Q1707 476 1707 335 Q1707 196 1618 95 Q1507 -31 1326 -31 Q1143 -31 1032 95 Q943 196 943 340 Q943 478 1032 576 Q1147 702 1325 702 Z M1325 500 Q1255 500 1213 454 Q1170 407 1170 338 Q1170 264 1213 217 Q1255 171 1325 171 Q1395 171 1437 218 Q1480 265 1480 337 Q1480 407 1437 454 Q1395 500 1325 500 Z M2171 702 Q2352 702 2464 576 Q2553 476 2553 335 Q2553 196 2464 95 Q2352 -31 2172 -31 Q1989 -31 1877 95 Q1788 196 1788 340 Q1788 478 1877 576 Q1992 702 2171 702 Z M2170 500 Q2100 500 2058 454 Q2015 407 2015 338 Q2015 264 2058 217 Q2100 171 2171 171 Q2241 171 2283 218 Q2326 265 2326 337 Q2326 407 2283 454 Q2241 500 2170 500 Z " />
<glyph glyph-name="Acircumflex" unicode="&#xc2;" horiz-adv-x="1470" d="M1020 421 L448 421 L374 224 L516 224 L516 0 L-12 0 L-12 224 L102 224 L594 1475 L873 1475 L1366 224 L1481 224 L1481 0 L952 0 L952 224 L1094 224 L1020 421 Z M938 638 L733 1206 L529 638 L938 638 Z M735 1795 L584 1606 L413 1606 L620 1948 L850 1948 L1056 1606 L884 1606 L735 1795 Z " />
<glyph glyph-name="Ecircumflex" unicode="&#xca;" horiz-adv-x="1260" d="M210 224 L210 1251 L69 1251 L69 1475 L1188 1475 L1188 1086 L954 1086 L954 1251 L480 1251 L480 883 L938 883 L938 659 L480 659 L480 224 L957 224 L957 437 L1191 437 L1191 0 L69 0 L69 224 L210 224 Z M665 1795 L514 1606 L343 1606 L550 1948 L780 1948 L986 1606 L814 1606 L665 1795 Z " />
<glyph glyph-name="Aacute" unicode="&#xc1;" horiz-adv-x="1470" d="M1020 421 L448 421 L374 224 L516 224 L516 0 L-12 0 L-12 224 L102 224 L594 1475 L873 1475 L1366 224 L1481 224 L1481 0 L952 0 L952 224 L1094 224 L1020 421 Z M938 638 L733 1206 L529 638 L938 638 Z M628 1606 L820 1948 L1086 1948 L801 1606 L628 1606 Z " />
<glyph glyph-name="Edieresis" unicode="&#xcb;" horiz-adv-x="1260" d="M210 224 L210 1251 L69 1251 L69 1475 L1188 1475 L1188 1086 L954 1086 L954 1251 L480 1251 L480 883 L938 883 L938 659 L480 659 L480 224 L957 224 L957 437 L1191 437 L1191 0 L69 0 L69 224 L210 224 Z M335 1630 L335 1877 L564 1877 L564 1630 L335 1630 Z M726 1630 L726 1877 L955 1877 L955 1630 L726 1630 Z " />
<glyph glyph-name="Egrave" unicode="&#xc8;" horiz-adv-x="1260" d="M210 224 L210 1251 L69 1251 L69 1475 L1188 1475 L1188 1086 L954 1086 L954 1251 L480 1251 L480 883 L938 883 L938 659 L480 659 L480 224 L957 224 L957 437 L1191 437 L1191 0 L69 0 L69 224 L210 224 Z M637 1606 L353 1948 L619 1948 L811 1606 L637 1606 Z " />
<glyph glyph-name="Iacute" unicode="&#xcd;" horiz-adv-x="691" d="M211 224 L211 1251 L70 1251 L70 1475 L622 1475 L622 1251 L481 1251 L481 224 L622 224 L622 0 L70 0 L70 224 L211 224 Z M231 1606 L423 1948 L689 1948 L404 1606 L231 1606 Z " />
<glyph glyph-name="Icircumflex" unicode="&#xce;" horiz-adv-x="691" d="M211 224 L211 1251 L70 1251 L70 1475 L622 1475 L622 1251 L481 1251 L481 224 L622 224 L622 0 L70 0 L70 224 L211 224 Z M346 1795 L195 1606 L24 1606 L231 1948 L461 1948 L667 1606 L495 1606 L346 1795 Z " />
<glyph glyph-name="Idieresis" unicode="&#xcf;" horiz-adv-x="691" d="M211 224 L211 1251 L70 1251 L70 1475 L622 1475 L622 1251 L481 1251 L481 224 L622 224 L622 0 L70 0 L70 224 L211 224 Z M36 1630 L36 1877 L265 1877 L265 1630 L36 1630 Z M427 1630 L427 1877 L656 1877 L656 1630 L427 1630 Z " />
<glyph glyph-name="Igrave" unicode="&#xcc;" horiz-adv-x="691" d="M211 224 L211 1251 L70 1251 L70 1475 L622 1475 L622 1251 L481 1251 L481 224 L622 224 L622 0 L70 0 L70 224 L211 224 Z M321 1606 L37 1948 L303 1948 L495 1606 L321 1606 Z " />
<glyph glyph-name="Oacute" unicode="&#xd3;" horiz-adv-x="1716" d="M858 1506 Q1109 1506 1308 1372 Q1497 1245 1580 1033 Q1635 894 1635 738 Q1635 459 1472 254 Q1355 107 1177 32 Q1029 -31 860 -31 Q606 -31 408 103 Q219 230 136 443 Q81 582 81 747 Q81 923 157 1083 Q256 1293 472 1411 Q646 1506 858 1506 Z M858 1271 Q633 1271 489 1112 Q355 965 355 745 Q355 512 489 363 Q632 204 859 204 Q1084 204 1227 363 Q1361 512 1361 738 Q1361 965 1227 1112 Q1082 1271 858 1271 Z M703 1606 L895 1948 L1161 1948 L876 1606 L703 1606 Z " />
<glyph glyph-name="Ocircumflex" unicode="&#xd4;" horiz-adv-x="1716" d="M858 1506 Q1109 1506 1308 1372 Q1497 1245 1580 1033 Q1635 894 1635 738 Q1635 459 1472 254 Q1355 107 1177 32 Q1029 -31 860 -31 Q606 -31 408 103 Q219 230 136 443 Q81 582 81 747 Q81 923 157 1083 Q256 1293 472 1411 Q646 1506 858 1506 Z M858 1271 Q633 1271 489 1112 Q355 965 355 745 Q355 512 489 363 Q632 204 859 204 Q1084 204 1227 363 Q1361 512 1361 738 Q1361 965 1227 1112 Q1082 1271 858 1271 Z M858 1795 L707 1606 L536 1606 L743 1948 L973 1948 L1179 1606 L1007 1606 L858 1795 Z " />
<glyph glyph-name="Ograve" unicode="&#xd2;" horiz-adv-x="1716" d="M858 1506 Q1109 1506 1308 1372 Q1497 1245 1580 1033 Q1635 894 1635 738 Q1635 459 1472 254 Q1355 107 1177 32 Q1029 -31 860 -31 Q606 -31 408 103 Q219 230 136 443 Q81 582 81 747 Q81 923 157 1083 Q256 1293 472 1411 Q646 1506 858 1506 Z M858 1271 Q633 1271 489 1112 Q355 965 355 745 Q355 512 489 363 Q632 204 859 204 Q1084 204 1227 363 Q1361 512 1361 738 Q1361 965 1227 1112 Q1082 1271 858 1271 Z M840 1606 L556 1948 L822 1948 L1014 1606 L840 1606 Z " />
<glyph glyph-name="Uacute" unicode="&#xda;" horiz-adv-x="1453" d="M59 1251 L59 1475 L627 1475 L627 1251 L470 1251 L470 586 Q470 452 487 386 Q532 211 727 211 Q882 211 940 317 Q967 367 977 438 Q984 487 984 586 L984 1251 L827 1251 L827 1475 L1395 1475 L1395 1251 L1254 1251 L1254 628 Q1254 417 1231 313 Q1194 147 1068 59 Q937 -31 727 -31 Q412 -31 284 165 Q224 259 207 411 Q200 479 200 628 L200 1251 L59 1251 Z M611 1606 L803 1948 L1069 1948 L784 1606 L611 1606 Z " />
<glyph glyph-name="Ucircumflex" unicode="&#xdb;" horiz-adv-x="1453" d="M59 1251 L59 1475 L627 1475 L627 1251 L470 1251 L470 586 Q470 452 487 386 Q532 211 727 211 Q882 211 940 317 Q967 367 977 438 Q984 487 984 586 L984 1251 L827 1251 L827 1475 L1395 1475 L1395 1251 L1254 1251 L1254 628 Q1254 417 1231 313 Q1194 147 1068 59 Q937 -31 727 -31 Q412 -31 284 165 Q224 259 207 411 Q200 479 200 628 L200 1251 L59 1251 Z M752 1795 L601 1606 L430 1606 L637 1948 L867 1948 L1073 1606 L901 1606 L752 1795 Z " />
<glyph glyph-name="Ugrave" unicode="&#xd9;" horiz-adv-x="1453" d="M59 1251 L59 1475 L627 1475 L627 1251 L470 1251 L470 586 Q470 452 487 386 Q532 211 727 211 Q882 211 940 317 Q967 367 977 438 Q984 487 984 586 L984 1251 L827 1251 L827 1475 L1395 1475 L1395 1251 L1254 1251 L1254 628 Q1254 417 1231 313 Q1194 147 1068 59 Q937 -31 727 -31 Q412 -31 284 165 Q224 259 207 411 Q200 479 200 628 L200 1251 L59 1251 Z M706 1606 L422 1948 L688 1948 L880 1606 L706 1606 Z " />
<glyph glyph-name="dotlessi" unicode="&#x131;" horiz-adv-x="650" d="M214 224 L214 775 L73 775 L73 999 L474 999 L474 224 L613 224 L613 0 L59 0 L59 224 L214 224 Z " />
<glyph glyph-name="circumflex" unicode="&#x2c6;" horiz-adv-x="1024" d="M512 1334 L358 1137 L187 1137 L397 1487 L628 1487 L837 1137 L665 1137 L512 1334 Z " />
<glyph glyph-name="tilde" unicode="&#x2dc;" horiz-adv-x="1024" d="M329 1165 L181 1165 Q216 1410 397 1410 Q442 1410 491 1389 Q512 1380 567 1353 Q605 1334 626 1334 Q671 1334 693 1409 L842 1409 Q823 1302 783 1243 Q728 1159 616 1159 Q572 1159 530 1177 Q511 1185 446 1218 Q413 1234 395 1234 Q354 1234 329 1165 Z " />
<glyph glyph-name="macron" unicode="&#xaf;" horiz-adv-x="1024" d="M225 1198 L225 1375 L799 1375 L799 1198 L225 1198 Z " />
<glyph glyph-name="breve" unicode="&#x2d8;" horiz-adv-x="1024" d="M201 1453 L350 1453 Q356 1387 379 1359 Q420 1312 511 1312 Q610 1312 648 1368 Q665 1392 671 1453 L820 1453 Q809 1317 767 1248 Q697 1136 511 1136 Q308 1136 242 1270 Q210 1336 201 1453 Z " />
<glyph glyph-name="dotaccent" unicode="&#x2d9;" horiz-adv-x="1024" d="M378 1146 L378 1423 L645 1423 L645 1146 L378 1146 Z " />
<glyph glyph-name="ring" unicode="&#x2da;" horiz-adv-x="1024" d="M513 1608 Q639 1608 708 1533 Q770 1466 770 1362 Q770 1257 708 1190 Q639 1115 514 1115 Q387 1115 318 1190 Q256 1257 256 1365 Q256 1467 318 1533 Q389 1608 513 1608 Z M513 1474 Q455 1474 427 1435 Q407 1408 407 1363 Q407 1249 513 1249 Q619 1249 619 1362 Q619 1474 513 1474 Z " />
<glyph glyph-name="cedilla" unicode="&#xb8;" horiz-adv-x="1024" d="M466 0 L635 0 L590 -84 Q668 -93 708 -115 Q798 -164 798 -277 Q798 -397 706 -455 Q636 -499 515 -499 Q382 -499 250 -459 L250 -270 Q414 -334 510 -334 Q597 -334 597 -276 Q597 -238 557 -228 Q535 -222 493 -222 Q474 -222 412 -228 L412 -107 L466 0 Z " />
<glyph glyph-name="hungarumlaut" unicode="&#x2dd;" horiz-adv-x="1024" d="M273 1137 L416 1487 L646 1487 L416 1137 L273 1137 Z M572 1137 L744 1487 L984 1487 L718 1137 L572 1137 Z " />
<glyph glyph-name="ogonek" unicode="&#x2db;" horiz-adv-x="1024" d="M541 0 L708 0 Q613 -76 582 -115 Q536 -171 536 -222 Q536 -294 614 -294 L711 -294 L711 -459 L602 -459 Q466 -459 402 -416 Q335 -372 335 -272 Q335 -172 433 -81 Q457 -59 541 0 Z " />
<glyph glyph-name="caron" unicode="&#x2c7;" horiz-adv-x="1024" d="M512 1290 L665 1487 L837 1487 L628 1137 L397 1137 L187 1487 L358 1487 L512 1290 Z " />
<glyph glyph-name="uni00A0" unicode="&#xa0;" horiz-adv-x="573" d="" />
<glyph glyph-name="currency" unicode="&#xa4;" horiz-adv-x="1147" d="M170 277 L42 409 L224 589 Q160 686 160 809 Q160 927 223 1027 L42 1206 L170 1339 L352 1156 Q452 1221 574 1221 Q694 1221 794 1157 L974 1338 L1105 1207 L923 1027 Q986 923 986 809 Q986 690 922 589 L1105 408 L974 277 L793 460 Q686 396 573 396 Q460 396 353 460 L170 277 Z M573 1023 Q482 1023 419 958 Q358 895 358 811 Q358 722 419 659 Q482 594 574 594 Q664 594 727 659 Q788 722 788 809 Q788 896 727 958 Q663 1023 573 1023 Z " />
<glyph glyph-name="brokenbar" unicode="&#xa6;" horiz-adv-x="664" d="M212 843 L212 1467 L453 1467 L453 843 L212 843 Z M212 0 L212 624 L453 624 L453 0 L212 0 Z " />
<glyph glyph-name="uni00AD" unicode="&#xad;" horiz-adv-x="715" d="M84 459 L84 683 L632 683 L632 459 L84 459 Z " />
<glyph glyph-name="twosuperior" unicode="&#xb2;" horiz-adv-x="737" d="M22 819 Q27 920 48 965 Q94 1066 267 1220 Q379 1319 406 1351 Q445 1398 445 1440 Q445 1476 420 1500 Q393 1526 350 1526 Q279 1526 243 1442 Q230 1409 217 1348 L23 1386 Q51 1517 94 1577 Q178 1696 354 1696 Q475 1696 555 1645 Q655 1581 655 1446 Q655 1331 557 1222 Q520 1182 398 1076 Q346 1030 306 989 L525 989 L525 1114 L703 1114 L703 819 L22 819 Z " />
<glyph glyph-name="threesuperior" unicode="&#xb3;" horiz-adv-x="737" d="M250 1186 L250 1339 Q271 1339 284 1339 Q359 1339 403 1360 Q459 1388 459 1443 Q459 1476 437 1499 Q408 1527 355 1527 Q290 1527 255 1481 Q243 1465 225 1417 L36 1450 Q71 1554 122 1608 Q202 1695 363 1695 Q524 1695 603 1614 Q661 1554 661 1454 Q661 1334 546 1274 Q695 1211 695 1071 Q695 941 601 869 Q514 802 363 802 Q45 802 27 1074 L214 1096 Q219 1047 249 1016 Q290 972 361 972 Q418 972 451 999 Q485 1026 485 1074 Q485 1157 384 1177 Q338 1186 250 1186 Z " />
<glyph glyph-name="onesuperior" unicode="&#xb9;" horiz-adv-x="737" d="M286 989 L286 1479 L148 1421 L87 1575 L329 1679 L493 1679 L493 989 L625 989 L625 819 L151 819 L151 989 L286 989 Z " />
<glyph glyph-name="onequarter" unicode="&#xbc;" horiz-adv-x="1761" d="M272 784 L272 1275 L134 1217 L73 1370 L315 1475 L479 1475 L479 784 L611 784 L611 614 L137 614 L137 784 L272 784 Z M382 0 L1126 1475 L1332 1475 L588 0 L382 0 Z M1371 0 L1371 176 L977 176 L977 342 L1223 860 L1436 860 L1188 340 L1371 340 L1371 577 L1555 577 L1555 340 L1670 340 L1670 176 L1555 176 L1555 0 L1371 0 Z " />
<glyph glyph-name="onehalf" unicode="&#xbd;" horiz-adv-x="1761" d="M261 784 L261 1275 L123 1217 L62 1370 L304 1475 L468 1475 L468 784 L600 784 L600 614 L126 614 L126 784 L261 784 Z M370 0 L1114 1475 L1319 1475 L576 0 L370 0 Z M1009 0 Q1014 101 1035 146 Q1081 247 1254 401 Q1366 500 1393 532 Q1432 579 1432 621 Q1432 657 1407 681 Q1380 707 1337 707 Q1266 707 1230 623 Q1217 591 1204 529 L1010 567 Q1038 698 1081 758 Q1166 877 1341 877 Q1462 877 1542 826 Q1642 762 1642 626 Q1642 512 1543 403 Q1507 363 1385 257 Q1333 212 1293 170 L1512 170 L1512 295 L1690 295 L1690 0 L1009 0 Z " />
<glyph glyph-name="threequarters" unicode="&#xbe;" horiz-adv-x="1761" d="M268 982 L268 1135 Q289 1135 302 1135 Q377 1135 421 1156 Q477 1184 477 1240 Q477 1273 455 1296 Q426 1324 373 1324 Q308 1324 273 1278 Q261 1262 243 1213 L54 1246 Q89 1350 140 1405 Q220 1492 381 1492 Q543 1492 621 1411 Q679 1351 679 1251 Q679 1130 564 1070 Q713 1007 713 867 Q713 737 619 665 Q532 598 381 598 Q63 598 45 870 L232 892 Q237 843 267 812 Q308 768 379 768 Q436 768 469 795 Q503 822 503 870 Q503 953 402 973 Q356 982 268 982 Z M424 0 L1168 1475 L1374 1475 L630 0 L424 0 Z M1397 0 L1397 176 L1002 176 L1002 342 L1248 860 L1462 860 L1213 340 L1397 340 L1397 577 L1581 577 L1581 340 L1696 340 L1696 176 L1581 176 L1581 0 L1397 0 Z " />
<glyph glyph-name="Eth" unicode="&#xd0;" horiz-adv-x="1483" d="M210 224 L210 686 L3 686 L3 880 L210 880 L210 1251 L69 1251 L69 1475 L598 1475 Q829 1475 981 1415 Q1198 1331 1308 1135 Q1402 969 1402 737 Q1402 376 1175 177 Q1043 62 857 23 Q745 0 598 0 L69 0 L69 224 L210 224 Z M480 224 L587 224 Q822 224 964 340 Q1128 475 1128 737 Q1128 999 964 1134 Q823 1251 587 1251 L480 1251 L480 880 L823 880 L823 686 L480 686 L480 224 Z " />
<glyph glyph-name="multiply" unicode="&#xd7;" horiz-adv-x="1147" d="M413 736 L152 997 L313 1157 L574 896 L835 1157 L996 997 L734 736 L996 475 L835 314 L574 575 L313 314 L152 475 L413 736 Z " />
<glyph glyph-name="Yacute" unicode="&#xdd;" horiz-adv-x="1282" d="M501 224 L501 673 L116 1251 L10 1251 L10 1475 L552 1475 L552 1251 L434 1251 L652 896 L870 1251 L753 1251 L753 1475 L1265 1475 L1265 1251 L1151 1251 L771 668 L771 224 L961 224 L961 0 L312 0 L312 224 L501 224 Z M558 1606 L750 1948 L1016 1948 L731 1606 L558 1606 Z " />
<glyph glyph-name="Thorn" unicode="&#xde;" horiz-adv-x="1277" d="M210 224 L210 1251 L69 1251 L69 1475 L619 1475 L619 1251 L480 1251 L480 1178 L608 1178 Q789 1178 893 1156 Q1060 1122 1147 1004 Q1222 902 1222 753 Q1222 518 1045 423 Q887 338 609 338 L480 338 L480 224 L668 224 L668 0 L69 0 L69 224 L210 224 Z M480 545 L597 545 Q948 545 948 759 Q948 964 605 964 L480 964 L480 545 Z " />
<glyph glyph-name="eth" unicode="&#xf0;" horiz-adv-x="1217" d="M362 1038 L282 1159 L470 1276 L452 1291 Q398 1338 343 1383 L491 1520 Q597 1441 656 1389 L866 1520 L946 1400 L766 1287 Q896 1156 984 1024 Q1150 777 1150 508 Q1150 321 1080 207 Q1001 77 852 16 Q743 -29 609 -29 Q370 -29 222 106 Q67 248 67 482 Q67 717 222 862 Q363 995 574 995 Q651 995 707 972 Q730 962 766 941 Q668 1086 580 1174 L362 1038 Z M608 780 Q478 780 401 695 Q331 618 331 487 Q331 357 401 280 Q478 195 609 195 Q740 195 817 280 Q887 357 887 484 Q887 621 818 695 Q738 780 608 780 Z " />
<glyph glyph-name="yacute" unicode="&#xfd;" horiz-adv-x="1122" d="M106 775 L16 775 L16 999 L510 999 L510 775 L382 775 L515 458 Q540 400 569 309 Q600 392 641 487 L767 775 L633 775 L633 999 L1131 999 L1131 775 L1032 775 L638 -63 Q580 -185 546 -245 Q469 -377 334 -407 Q269 -421 153 -422 L153 -198 Q246 -198 282 -179 Q335 -152 389 -37 L431 50 L106 775 Z M480 1137 L679 1487 L945 1487 L653 1137 L480 1137 Z " />
<glyph glyph-name="thorn" unicode="&#xfe;" horiz-adv-x="1296" d="M186 -198 L188 1251 L47 1251 L47 1475 L448 1475 L448 914 Q511 962 539 977 Q631 1028 756 1028 Q963 1028 1094 888 Q1229 744 1229 500 Q1229 255 1094 111 Q964 -29 755 -29 Q639 -29 543 21 Q500 44 446 86 L446 -198 L592 -198 L592 -422 L46 -422 L46 -198 L186 -198 Z M712 804 Q589 804 515 715 Q446 634 446 504 Q446 366 515 284 Q589 195 712 195 Q833 195 902 284 Q965 365 965 500 Q965 639 899 719 Q828 804 712 804 Z " />
<glyph glyph-name="Amacron" unicode="&#x100;" horiz-adv-x="1470" d="M1020 421 L448 421 L374 224 L516 224 L516 0 L-12 0 L-12 224 L102 224 L594 1475 L873 1475 L1366 224 L1481 224 L1481 0 L952 0 L952 224 L1094 224 L1020 421 Z M938 638 L733 1206 L529 638 L938 638 Z M445 1666 L445 1843 L1019 1843 L1019 1666 L445 1666 Z " />
<glyph glyph-name="amacron" unicode="&#x101;" horiz-adv-x="1197" d="M742 605 L742 649 Q742 739 716 769 Q673 816 543 816 Q448 816 414 782 Q391 759 384 697 L143 697 Q148 860 228 936 Q320 1026 550 1026 Q842 1026 942 895 Q988 834 1002 731 Q1008 684 1008 594 L1008 224 L1146 224 L1146 0 L774 0 L774 97 Q648 -29 437 -29 Q271 -29 172 43 Q63 122 63 295 Q63 475 192 558 Q282 616 494 616 Q607 616 742 605 Z M749 413 Q628 423 516 423 Q402 423 365 396 Q323 365 323 303 Q323 240 364 214 Q402 189 492 189 Q640 189 710 250 Q738 275 745 305 Q749 320 749 358 L749 413 Z M312 1198 L312 1375 L886 1375 L886 1198 L312 1198 Z " />
<glyph glyph-name="Abreve" unicode="&#x102;" horiz-adv-x="1470" d="M1020 421 L448 421 L374 224 L516 224 L516 0 L-12 0 L-12 224 L102 224 L594 1475 L873 1475 L1366 224 L1481 224 L1481 0 L952 0 L952 224 L1094 224 L1020 421 Z M938 638 L733 1206 L529 638 L938 638 Z M424 1922 L573 1922 Q579 1855 602 1828 Q643 1781 734 1781 Q834 1781 871 1836 Q888 1861 894 1922 L1043 1922 Q1032 1786 990 1717 Q920 1605 734 1605 Q531 1605 465 1739 Q433 1804 424 1922 Z " />
<glyph glyph-name="abreve" unicode="&#x103;" horiz-adv-x="1197" d="M742 605 L742 649 Q742 739 716 769 Q673 816 543 816 Q448 816 414 782 Q391 759 384 697 L143 697 Q148 860 228 936 Q320 1026 550 1026 Q842 1026 942 895 Q988 834 1002 731 Q1008 684 1008 594 L1008 224 L1146 224 L1146 0 L774 0 L774 97 Q648 -29 437 -29 Q271 -29 172 43 Q63 122 63 295 Q63 475 192 558 Q282 616 494 616 Q607 616 742 605 Z M749 413 Q628 423 516 423 Q402 423 365 396 Q323 365 323 303 Q323 240 364 214 Q402 189 492 189 Q640 189 710 250 Q738 275 745 305 Q749 320 749 358 L749 413 Z M285 1453 L434 1453 Q440 1387 463 1359 Q504 1312 595 1312 Q694 1312 732 1368 Q749 1392 755 1453 L904 1453 Q893 1317 851 1248 Q781 1136 595 1136 Q392 1136 326 1270 Q294 1336 285 1453 Z " />
<glyph glyph-name="Aogonek" unicode="&#x104;" horiz-adv-x="1470" d="M1020 421 L448 421 L374 224 L516 224 L516 0 L-12 0 L-12 224 L102 224 L594 1475 L873 1475 L1366 224 L1481 224 L1481 0 Q1408 -59 1380 -87 Q1309 -157 1309 -222 Q1309 -294 1387 -294 L1484 -294 L1484 -459 L1375 -459 Q1239 -459 1175 -416 Q1108 -372 1108 -272 Q1108 -172 1206 -81 Q1230 -59 1314 0 L952 0 L952 224 L1094 224 L1020 421 Z M938 638 L733 1206 L529 638 L938 638 Z " />
<glyph glyph-name="aogonek" unicode="&#x105;" horiz-adv-x="1197" d="M742 605 L742 649 Q742 739 716 769 Q673 816 543 816 Q448 816 414 782 Q391 759 384 697 L143 697 Q148 860 228 936 Q320 1026 550 1026 Q842 1026 942 895 Q988 834 1002 731 Q1008 684 1008 594 L1008 224 L1146 224 L1146 0 Q1074 -57 1043 -87 Q972 -157 972 -222 Q972 -294 1052 -294 L1149 -294 L1149 -459 L1039 -459 Q903 -459 839 -416 Q772 -372 772 -272 Q772 -172 870 -81 Q900 -54 979 0 L774 0 L774 97 Q648 -29 437 -29 Q271 -29 172 43 Q63 123 63 295 Q63 475 192 558 Q282 616 494 616 Q607 616 742 605 Z M749 413 Q628 423 516 423 Q402 423 365 396 Q323 365 323 303 Q323 240 364 214 Q402 189 492 189 Q640 189 710 250 Q738 275 745 305 Q749 320 749 358 L749 413 Z " />
<glyph glyph-name="Cacute" unicode="&#x106;" horiz-adv-x="1457" d="M1221 394 L1380 206 Q1280 99 1169 46 Q1006 -31 791 -31 Q436 -31 253 183 Q81 384 81 724 Q81 1078 272 1294 Q459 1506 771 1506 Q956 1506 1119 1413 L1119 1475 L1336 1475 L1336 1021 L1102 1021 L1102 1039 Q1102 1120 1045 1178 Q955 1271 787 1271 Q580 1271 465 1115 Q355 967 355 730 Q355 491 476 345 Q586 211 799 211 Q958 211 1087 287 Q1139 317 1221 394 Z M673 1606 L865 1948 L1131 1948 L846 1606 L673 1606 Z " />
<glyph glyph-name="cacute" unicode="&#x107;" horiz-adv-x="1035" d="M889 315 L1022 140 Q853 -30 569 -30 Q334 -30 209 92 Q67 230 67 487 Q67 727 184 874 Q306 1028 519 1028 Q654 1028 759 953 L759 999 L953 999 L953 631 L736 631 L736 656 Q736 729 701 760 Q651 805 567 805 Q450 805 389 720 Q331 638 331 499 Q331 357 398 276 Q464 196 585 196 Q705 196 796 245 Q836 267 889 315 Z M436 1137 L635 1487 L901 1487 L609 1137 L436 1137 Z " />
<glyph glyph-name="Ccircumflex" unicode="&#x108;" horiz-adv-x="1457" d="M1221 394 L1380 206 Q1280 99 1169 46 Q1006 -31 791 -31 Q436 -31 253 183 Q81 384 81 724 Q81 1078 272 1294 Q459 1506 771 1506 Q956 1506 1119 1413 L1119 1475 L1336 1475 L1336 1021 L1102 1021 L1102 1039 Q1102 1120 1045 1178 Q955 1271 787 1271 Q580 1271 465 1115 Q355 967 355 730 Q355 491 476 345 Q586 211 799 211 Q958 211 1087 287 Q1139 317 1221 394 Z M779 1795 L628 1606 L457 1606 L664 1948 L894 1948 L1100 1606 L928 1606 L779 1795 Z " />
<glyph glyph-name="ccircumflex" unicode="&#x109;" horiz-adv-x="1035" d="M889 315 L1022 140 Q853 -30 569 -30 Q334 -30 209 92 Q67 230 67 487 Q67 727 184 874 Q306 1028 519 1028 Q654 1028 759 953 L759 999 L953 999 L953 631 L736 631 L736 656 Q736 729 701 760 Q651 805 567 805 Q450 805 389 720 Q331 638 331 499 Q331 357 398 276 Q464 196 585 196 Q705 196 796 245 Q836 267 889 315 Z M564 1334 L410 1137 L239 1137 L449 1487 L680 1487 L889 1137 L717 1137 L564 1334 Z " />
<glyph glyph-name="Cdotaccent" unicode="&#x10a;" horiz-adv-x="1457" d="M1221 394 L1380 206 Q1280 99 1169 46 Q1006 -31 791 -31 Q436 -31 253 183 Q81 384 81 724 Q81 1078 272 1294 Q459 1506 771 1506 Q956 1506 1119 1413 L1119 1475 L1336 1475 L1336 1021 L1102 1021 L1102 1039 Q1102 1120 1045 1178 Q955 1271 787 1271 Q580 1271 465 1115 Q355 967 355 730 Q355 491 476 345 Q586 211 799 211 Q958 211 1087 287 Q1139 317 1221 394 Z M666 1615 L666 1892 L933 1892 L933 1615 L666 1615 Z " />
<glyph glyph-name="cdotaccent" unicode="&#x10b;" horiz-adv-x="1035" d="M889 315 L1022 140 Q853 -30 569 -30 Q334 -30 209 92 Q67 230 67 487 Q67 727 184 874 Q306 1028 519 1028 Q654 1028 759 953 L759 999 L953 999 L953 631 L736 631 L736 656 Q736 729 701 760 Q651 805 567 805 Q450 805 389 720 Q331 638 331 499 Q331 357 398 276 Q464 196 585 196 Q705 196 796 245 Q836 267 889 315 Z M435 1146 L435 1423 L702 1423 L702 1146 L435 1146 Z " />
<glyph glyph-name="Ccaron" unicode="&#x10c;" horiz-adv-x="1457" d="M1221 394 L1380 206 Q1280 99 1169 46 Q1006 -31 791 -31 Q436 -31 253 183 Q81 384 81 724 Q81 1078 272 1294 Q459 1506 771 1506 Q956 1506 1119 1413 L1119 1475 L1336 1475 L1336 1021 L1102 1021 L1102 1039 Q1102 1120 1045 1178 Q955 1271 787 1271 Q580 1271 465 1115 Q355 967 355 730 Q355 491 476 345 Q586 211 799 211 Q958 211 1087 287 Q1139 317 1221 394 Z M805 1759 L955 1948 L1127 1948 L921 1606 L690 1606 L484 1948 L654 1948 L805 1759 Z " />
<glyph glyph-name="ccaron" unicode="&#x10d;" horiz-adv-x="1035" d="M889 315 L1022 140 Q853 -30 569 -30 Q334 -30 209 92 Q67 230 67 487 Q67 727 184 874 Q306 1028 519 1028 Q654 1028 759 953 L759 999 L953 999 L953 631 L736 631 L736 656 Q736 729 701 760 Q651 805 567 805 Q450 805 389 720 Q331 638 331 499 Q331 357 398 276 Q464 196 585 196 Q705 196 796 245 Q836 267 889 315 Z M584 1290 L737 1487 L909 1487 L700 1137 L469 1137 L259 1487 L430 1487 L584 1290 Z " />
<glyph glyph-name="Dcaron" unicode="&#x10e;" horiz-adv-x="1511" d="M210 224 L210 1251 L69 1251 L69 1475 L626 1475 Q858 1475 1010 1415 Q1227 1331 1337 1135 Q1431 969 1431 738 Q1431 376 1204 177 Q1072 62 886 23 Q774 0 626 0 L69 0 L69 224 L210 224 Z M480 224 L616 224 Q851 224 992 340 Q1156 475 1156 737 Q1156 1000 993 1134 Q851 1251 616 1251 L480 1251 L480 224 Z M630 1759 L780 1948 L952 1948 L746 1606 L515 1606 L309 1948 L479 1948 L630 1759 Z " />
<glyph glyph-name="dcaron" unicode="&#x10f;" horiz-adv-x="1607" d="M850 0 L850 107 Q804 63 771 40 Q667 -29 528 -29 Q326 -29 198 111 Q67 255 67 500 Q67 744 198 888 Q326 1028 527 1028 Q663 1028 759 966 Q785 949 825 913 L825 1251 L678 1251 L678 1475 L1085 1475 L1085 224 L1225 224 L1225 0 L850 0 Z M572 804 Q460 804 394 719 Q331 638 331 500 Q331 364 391 284 Q457 195 572 195 Q690 195 760 284 Q825 366 825 495 Q825 635 760 715 Q688 804 572 804 Z M1240 958 L1366 1475 L1647 1475 L1434 958 L1240 958 Z " />
<glyph glyph-name="Dcroat" unicode="&#x110;" horiz-adv-x="1483" d="M210 224 L210 686 L3 686 L3 880 L210 880 L210 1251 L69 1251 L69 1475 L598 1475 Q829 1475 981 1415 Q1198 1331 1308 1135 Q1402 969 1402 737 Q1402 376 1175 177 Q1043 62 857 23 Q745 0 598 0 L69 0 L69 224 L210 224 Z M480 224 L587 224 Q822 224 964 340 Q1128 475 1128 737 Q1128 999 964 1134 Q823 1251 587 1251 L480 1251 L480 880 L823 880 L823 686 L480 686 L480 224 Z " />
<glyph glyph-name="dcroat" unicode="&#x111;" horiz-adv-x="1281" d="M825 1086 L516 1086 L516 1212 L825 1212 L825 1285 L678 1285 L678 1475 L1085 1475 L1085 1212 L1259 1212 L1259 1086 L1085 1086 L1085 224 L1225 224 L1225 0 L850 0 L850 107 Q804 63 771 40 Q667 -29 529 -29 Q326 -29 199 111 Q67 255 67 499 Q67 744 199 888 Q326 1028 527 1028 Q664 1028 759 966 Q783 950 825 913 L825 1086 Z M572 804 Q460 804 394 719 Q331 638 331 500 Q331 364 391 284 Q457 195 572 195 Q690 195 760 284 Q825 366 825 495 Q825 635 760 715 Q688 804 572 804 Z " />
<glyph glyph-name="Emacron" unicode="&#x112;" horiz-adv-x="1260" d="M210 224 L210 1251 L69 1251 L69 1475 L1188 1475 L1188 1086 L954 1086 L954 1251 L480 1251 L480 883 L938 883 L938 659 L480 659 L480 224 L957 224 L957 437 L1191 437 L1191 0 L69 0 L69 224 L210 224 Z M373 1666 L373 1843 L947 1843 L947 1666 L373 1666 Z " />
<glyph glyph-name="emacron" unicode="&#x113;" horiz-adv-x="1164" d="M1100 413 L336 413 Q351 337 383 294 Q455 195 610 195 Q731 195 846 242 Q893 261 970 304 L1088 110 Q986 50 912 23 Q765 -31 607 -31 Q357 -31 212 111 Q63 257 63 500 Q63 745 211 891 Q351 1028 587 1028 Q803 1028 937 903 Q1057 792 1086 604 Q1098 529 1100 413 Z M824 612 Q783 813 583 813 Q389 813 339 612 L824 612 Z M298 1198 L298 1375 L872 1375 L872 1198 L298 1198 Z " />
<glyph glyph-name="Ebreve" unicode="&#x114;" horiz-adv-x="1260" d="M210 224 L210 1251 L69 1251 L69 1475 L1188 1475 L1188 1086 L954 1086 L954 1251 L480 1251 L480 883 L938 883 L938 659 L480 659 L480 224 L957 224 L957 437 L1191 437 L1191 0 L69 0 L69 224 L210 224 Z M349 1922 L498 1922 Q504 1855 527 1828 Q568 1781 659 1781 Q759 1781 796 1836 Q813 1861 819 1922 L968 1922 Q957 1786 915 1717 Q845 1605 659 1605 Q456 1605 390 1739 Q358 1804 349 1922 Z " />
<glyph glyph-name="ebreve" unicode="&#x115;" horiz-adv-x="1164" d="M1100 413 L336 413 Q351 337 383 294 Q455 195 610 195 Q731 195 846 242 Q893 261 970 304 L1088 110 Q986 50 912 23 Q765 -31 607 -31 Q357 -31 212 111 Q63 257 63 500 Q63 745 211 891 Q351 1028 587 1028 Q803 1028 937 903 Q1057 792 1086 604 Q1098 529 1100 413 Z M824 612 Q783 813 583 813 Q389 813 339 612 L824 612 Z M286 1453 L435 1453 Q441 1387 464 1359 Q505 1312 596 1312 Q695 1312 733 1368 Q750 1392 756 1453 L905 1453 Q894 1317 852 1248 Q782 1136 596 1136 Q393 1136 327 1270 Q295 1336 286 1453 Z " />
<glyph glyph-name="Edotaccent" unicode="&#x116;" horiz-adv-x="1260" d="M210 224 L210 1251 L69 1251 L69 1475 L1188 1475 L1188 1086 L954 1086 L954 1251 L480 1251 L480 883 L938 883 L938 659 L480 659 L480 224 L957 224 L957 437 L1191 437 L1191 0 L69 0 L69 224 L210 224 Z M536 1615 L536 1892 L803 1892 L803 1615 L536 1615 Z " />
<glyph glyph-name="edotaccent" unicode="&#x117;" horiz-adv-x="1164" d="M1100 413 L336 413 Q351 337 383 294 Q455 195 610 195 Q731 195 846 242 Q893 261 970 304 L1088 110 Q986 50 912 23 Q765 -31 607 -31 Q357 -31 212 111 Q63 257 63 500 Q63 745 211 891 Q351 1028 587 1028 Q803 1028 937 903 Q1057 792 1086 604 Q1098 529 1100 413 Z M824 612 Q783 813 583 813 Q389 813 339 612 L824 612 Z M450 1146 L450 1423 L717 1423 L717 1146 L450 1146 Z " />
<glyph glyph-name="Eogonek" unicode="&#x118;" horiz-adv-x="1260" d="M210 224 L210 1251 L69 1251 L69 1475 L1188 1475 L1188 1086 L954 1086 L954 1251 L480 1251 L480 883 L938 883 L938 659 L480 659 L480 224 L957 224 L957 437 L1191 437 L1191 0 Q1094 -77 1063 -115 Q1018 -170 1018 -222 Q1018 -294 1097 -294 L1194 -294 L1194 -459 L1085 -459 Q949 -459 885 -416 Q818 -372 818 -272 Q818 -172 916 -82 Q948 -53 1024 0 L69 0 L69 224 L210 224 Z " />
<glyph glyph-name="eogonek" unicode="&#x119;" horiz-adv-x="1164" d="M1100 413 L335 413 Q351 337 383 294 Q455 195 610 195 Q731 195 846 242 Q894 261 969 304 L1088 110 Q984 50 917 25 Q827 -9 713 -24 Q643 -81 616 -115 Q571 -170 571 -222 Q571 -294 649 -294 L746 -294 L746 -459 L637 -459 Q501 -459 437 -416 Q370 -372 370 -272 Q370 -174 464 -85 Q486 -64 536 -27 Q383 -12 277 59 Q63 202 63 500 Q63 745 211 891 Q351 1028 587 1028 Q803 1028 937 903 Q1057 792 1086 604 Q1098 529 1100 413 Z M824 612 Q783 813 583 813 Q389 813 339 612 L824 612 Z " />
<glyph glyph-name="Ecaron" unicode="&#x11a;" horiz-adv-x="1260" d="M210 224 L210 1251 L69 1251 L69 1475 L1188 1475 L1188 1086 L954 1086 L954 1251 L480 1251 L480 883 L938 883 L938 659 L480 659 L480 224 L957 224 L957 437 L1191 437 L1191 0 L69 0 L69 224 L210 224 Z M661 1759 L811 1948 L983 1948 L777 1606 L546 1606 L340 1948 L510 1948 L661 1759 Z " />
<glyph glyph-name="ecaron" unicode="&#x11b;" horiz-adv-x="1164" d="M1100 413 L336 413 Q351 337 383 294 Q455 195 610 195 Q731 195 846 242 Q893 261 970 304 L1088 110 Q986 50 912 23 Q765 -31 607 -31 Q357 -31 212 111 Q63 257 63 500 Q63 745 211 891 Q351 1028 587 1028 Q803 1028 937 903 Q1057 792 1086 604 Q1098 529 1100 413 Z M824 612 Q783 813 583 813 Q389 813 339 612 L824 612 Z M596 1290 L749 1487 L921 1487 L712 1137 L481 1137 L271 1487 L442 1487 L596 1290 Z " />
<glyph glyph-name="Gcircumflex" unicode="&#x11c;" horiz-adv-x="1644" d="M828 529 L828 753 L1496 753 L1496 63 Q1226 -31 867 -31 Q650 -31 512 23 Q298 107 187 295 Q81 474 81 730 Q81 1104 322 1323 Q521 1505 842 1505 Q1006 1505 1134 1457 Q1175 1442 1232 1413 L1232 1475 L1449 1475 L1449 1021 L1215 1021 L1215 1039 Q1215 1119 1156 1175 Q1055 1271 863 1271 Q619 1271 486 1120 Q355 972 355 734 Q355 472 502 330 Q631 204 875 204 Q1062 204 1251 252 L1251 529 L828 529 Z M857 1795 L706 1606 L535 1606 L742 1948 L972 1948 L1178 1606 L1006 1606 L857 1795 Z " />
<glyph glyph-name="gcircumflex" unicode="&#x11d;" horiz-adv-x="1275" d="M825 107 Q783 72 754 54 Q658 -3 529 -3 Q326 -3 198 131 Q67 269 67 503 Q67 737 192 881 Q321 1028 534 1028 Q677 1028 777 957 Q806 936 850 892 L850 999 L1226 999 L1226 775 L1085 775 L1085 98 Q1085 -72 1060 -163 Q1021 -307 899 -380 Q781 -450 576 -450 Q329 -450 228 -356 Q149 -283 144 -116 L385 -116 Q394 -176 423 -200 Q465 -236 578 -236 Q693 -236 749 -189 Q802 -145 817 -60 Q825 -16 825 70 L825 107 Z M572 804 Q460 804 394 720 Q331 639 331 504 Q331 376 391 303 Q458 221 572 221 Q689 221 760 302 Q825 377 825 499 Q825 634 760 715 Q689 804 572 804 Z M633 1334 L479 1137 L308 1137 L518 1487 L749 1487 L958 1137 L786 1137 L633 1334 Z " />
<glyph glyph-name="Gbreve" unicode="&#x11e;" horiz-adv-x="1644" d="M828 529 L828 753 L1496 753 L1496 63 Q1226 -31 867 -31 Q650 -31 512 23 Q298 107 187 295 Q81 474 81 730 Q81 1104 322 1323 Q521 1505 842 1505 Q1006 1505 1134 1457 Q1175 1442 1232 1413 L1232 1475 L1449 1475 L1449 1021 L1215 1021 L1215 1039 Q1215 1119 1156 1175 Q1055 1271 863 1271 Q619 1271 486 1120 Q355 972 355 734 Q355 472 502 330 Q631 204 875 204 Q1062 204 1251 252 L1251 529 L828 529 Z M539 1922 L688 1922 Q694 1855 717 1828 Q758 1781 849 1781 Q949 1781 986 1836 Q1003 1861 1009 1922 L1158 1922 Q1147 1786 1105 1717 Q1035 1605 849 1605 Q646 1605 580 1739 Q548 1804 539 1922 Z " />
<glyph glyph-name="gbreve" unicode="&#x11f;" horiz-adv-x="1275" d="M825 107 Q783 72 754 54 Q658 -3 529 -3 Q326 -3 198 131 Q67 269 67 503 Q67 737 192 881 Q321 1028 534 1028 Q677 1028 777 957 Q806 936 850 892 L850 999 L1226 999 L1226 775 L1085 775 L1085 98 Q1085 -72 1060 -163 Q1021 -307 899 -380 Q781 -450 576 -450 Q329 -450 228 -356 Q149 -283 144 -116 L385 -116 Q394 -176 423 -200 Q465 -236 578 -236 Q693 -236 749 -189 Q802 -145 817 -60 Q825 -16 825 70 L825 107 Z M572 804 Q460 804 394 720 Q331 639 331 504 Q331 376 391 303 Q458 221 572 221 Q689 221 760 302 Q825 377 825 499 Q825 634 760 715 Q689 804 572 804 Z M363 1453 L512 1453 Q518 1387 541 1359 Q582 1312 673 1312 Q772 1312 810 1368 Q827 1392 833 1453 L982 1453 Q971 1317 929 1248 Q859 1136 673 1136 Q470 1136 404 1270 Q372 1336 363 1453 Z " />
<glyph glyph-name="Gdotaccent" unicode="&#x120;" horiz-adv-x="1644" d="M828 529 L828 753 L1496 753 L1496 63 Q1226 -31 867 -31 Q650 -31 512 23 Q298 107 187 295 Q81 474 81 730 Q81 1104 322 1323 Q521 1505 842 1505 Q1006 1505 1134 1457 Q1175 1442 1232 1413 L1232 1475 L1449 1475 L1449 1021 L1215 1021 L1215 1039 Q1215 1119 1156 1175 Q1055 1271 863 1271 Q619 1271 486 1120 Q355 972 355 734 Q355 472 502 330 Q631 204 875 204 Q1062 204 1251 252 L1251 529 L828 529 Z M716 1615 L716 1892 L983 1892 L983 1615 L716 1615 Z " />
<glyph glyph-name="gdotaccent" unicode="&#x121;" horiz-adv-x="1275" d="M825 107 Q783 72 754 54 Q658 -3 529 -3 Q326 -3 198 131 Q67 269 67 503 Q67 737 192 881 Q321 1028 534 1028 Q677 1028 777 957 Q806 936 850 892 L850 999 L1226 999 L1226 775 L1085 775 L1085 98 Q1085 -72 1060 -163 Q1021 -307 899 -380 Q781 -450 576 -450 Q329 -450 228 -356 Q149 -283 144 -116 L385 -116 Q394 -176 423 -200 Q465 -236 578 -236 Q693 -236 749 -189 Q802 -145 817 -60 Q825 -16 825 70 L825 107 Z M572 804 Q460 804 394 720 Q331 639 331 504 Q331 376 391 303 Q458 221 572 221 Q689 221 760 302 Q825 377 825 499 Q825 634 760 715 Q689 804 572 804 Z M543 1146 L543 1423 L810 1423 L810 1146 L543 1146 Z " />
<glyph glyph-name="Gcommaaccent" unicode="&#x122;" horiz-adv-x="1644" d="M828 529 L828 753 L1496 753 L1496 63 Q1226 -31 867 -31 Q650 -31 512 23 Q298 107 187 295 Q81 474 81 730 Q81 1104 322 1323 Q521 1505 842 1505 Q1006 1505 1134 1457 Q1175 1442 1232 1413 L1232 1475 L1449 1475 L1449 1021 L1215 1021 L1215 1039 Q1215 1119 1156 1175 Q1055 1271 863 1271 Q619 1271 486 1120 Q355 972 355 734 Q355 472 502 330 Q631 204 875 204 Q1062 204 1251 252 L1251 529 L828 529 Z M592 -491 L744 -141 L1010 -141 L765 -491 L592 -491 Z " />
<glyph glyph-name="gcommaaccent" unicode="&#x123;" horiz-adv-x="1275" d="M825 107 Q783 72 754 54 Q658 -3 529 -3 Q326 -3 198 131 Q67 269 67 503 Q67 737 192 881 Q321 1028 534 1028 Q677 1028 777 957 Q806 936 850 892 L850 999 L1226 999 L1226 775 L1085 775 L1085 98 Q1085 -72 1060 -163 Q1021 -307 899 -380 Q781 -450 576 -450 Q329 -450 228 -356 Q149 -283 144 -116 L385 -116 Q394 -176 423 -200 Q465 -236 578 -236 Q693 -236 749 -189 Q802 -145 817 -60 Q825 -16 825 70 L825 107 Z M572 804 Q460 804 394 720 Q331 639 331 504 Q331 376 391 303 Q458 221 572 221 Q689 221 760 302 Q825 377 825 499 Q825 634 760 715 Q689 804 572 804 Z M949 1487 L750 1137 L484 1137 L775 1487 L949 1487 Z " />
<glyph glyph-name="Hcircumflex" unicode="&#x124;" horiz-adv-x="1494" d="M210 224 L210 1251 L69 1251 L69 1475 L636 1475 L636 1251 L480 1251 L480 885 L1015 885 L1015 1251 L857 1251 L857 1475 L1426 1475 L1426 1251 L1285 1251 L1285 224 L1426 224 L1426 0 L857 0 L857 224 L1015 224 L1015 661 L480 661 L480 224 L636 224 L636 0 L69 0 L69 224 L210 224 Z M747 1795 L596 1606 L425 1606 L632 1948 L862 1948 L1068 1606 L896 1606 L747 1795 Z " />
<glyph glyph-name="hcircumflex" unicode="&#x125;" horiz-adv-x="1295" d="M198 224 L198 1251 L57 1251 L57 1475 L458 1475 L458 890 Q525 944 580 975 Q676 1028 787 1028 Q978 1028 1051 896 Q1105 797 1105 576 L1105 224 L1243 224 L1243 0 L725 0 L725 224 L845 224 L845 589 Q845 681 826 725 Q797 796 717 796 Q640 796 554 736 Q527 717 458 652 L458 224 L586 224 L586 0 L57 0 L57 224 L198 224 Z M317 1795 L166 1606 L-5 1606 L202 1948 L432 1948 L638 1606 L466 1606 L317 1795 Z " />
<glyph glyph-name="Hbar" unicode="&#x126;" horiz-adv-x="1494" d="M69 0 L69 224 L209 224 L209 991 L52 991 L52 1109 L209 1109 L209 1251 L69 1251 L69 1475 L635 1475 L635 1251 L479 1251 L479 1109 L1014 1109 L1014 1251 L857 1251 L857 1475 L1425 1475 L1425 1251 L1284 1251 L1284 1109 L1442 1109 L1442 991 L1284 991 L1284 224 L1425 224 L1425 0 L857 0 L857 224 L1014 224 L1014 661 L479 661 L479 224 L635 224 L635 0 L69 0 Z M479 860 L1014 860 L1014 991 L479 991 L479 860 Z " />
<glyph glyph-name="hbar" unicode="&#x127;" horiz-adv-x="1295" d="M198 1086 L24 1086 L24 1212 L198 1212 L198 1285 L58 1285 L58 1475 L458 1475 L458 1212 L767 1212 L767 1086 L458 1086 L458 890 Q527 945 580 975 Q677 1028 788 1028 Q979 1028 1052 895 Q1106 797 1106 576 L1106 224 L1243 224 L1243 0 L725 0 L725 224 L846 224 L846 589 Q846 680 827 725 Q798 796 717 796 Q640 796 554 736 Q525 715 458 652 L458 224 L586 224 L586 0 L58 0 L58 224 L198 224 L198 1086 Z " />
<glyph glyph-name="Itilde" unicode="&#x128;" horiz-adv-x="691" d="M211 224 L211 1251 L70 1251 L70 1475 L622 1475 L622 1251 L481 1251 L481 224 L622 224 L622 0 L70 0 L70 224 L211 224 Z M175 1634 L15 1634 Q52 1878 249 1878 Q297 1878 350 1857 Q375 1848 432 1822 Q473 1803 497 1803 Q546 1803 568 1878 L730 1878 Q710 1772 666 1712 Q606 1628 486 1628 Q436 1628 393 1645 Q374 1653 301 1686 Q265 1702 247 1702 Q202 1702 175 1634 Z " />
<glyph glyph-name="itilde" unicode="&#x129;" horiz-adv-x="650" d="M214 224 L214 775 L73 775 L73 999 L474 999 L474 224 L613 224 L613 0 L59 0 L59 224 L214 224 Z M142 1165 L-6 1165 Q29 1410 210 1410 Q255 1410 304 1389 Q325 1380 380 1353 Q418 1334 439 1334 Q484 1334 506 1409 L655 1409 Q636 1302 596 1243 Q541 1159 429 1159 Q385 1159 343 1177 Q324 1185 259 1218 Q226 1234 208 1234 Q167 1234 142 1165 Z " />
<glyph glyph-name="Imacron" unicode="&#x12a;" horiz-adv-x="691" d="M211 224 L211 1251 L70 1251 L70 1475 L622 1475 L622 1251 L481 1251 L481 224 L622 224 L622 0 L70 0 L70 224 L211 224 Z M59 1666 L59 1843 L633 1843 L633 1666 L59 1666 Z " />
<glyph glyph-name="imacron" unicode="&#x12b;" horiz-adv-x="650" d="M214 224 L214 775 L73 775 L73 999 L474 999 L474 224 L613 224 L613 0 L59 0 L59 224 L214 224 Z M5 1198 L5 1375 L579 1375 L579 1198 L5 1198 Z " />
<glyph glyph-name="Ibreve" unicode="&#x12c;" horiz-adv-x="691" d="M211 224 L211 1251 L70 1251 L70 1475 L622 1475 L622 1251 L481 1251 L481 224 L622 224 L622 0 L70 0 L70 224 L211 224 Z M36 1922 L185 1922 Q191 1855 214 1828 Q255 1781 346 1781 Q446 1781 483 1836 Q500 1861 506 1922 L655 1922 Q644 1786 602 1717 Q532 1605 346 1605 Q143 1605 77 1739 Q45 1804 36 1922 Z " />
<glyph glyph-name="ibreve" unicode="&#x12d;" horiz-adv-x="650" d="M214 224 L214 775 L73 775 L73 999 L474 999 L474 224 L613 224 L613 0 L59 0 L59 224 L214 224 Z M-7 1453 L142 1453 Q148 1387 171 1359 Q212 1312 303 1312 Q402 1312 440 1368 Q457 1392 463 1453 L612 1453 Q601 1317 559 1248 Q489 1136 303 1136 Q100 1136 34 1270 Q2 1336 -7 1453 Z " />
<glyph glyph-name="Iogonek" unicode="&#x12e;" horiz-adv-x="691" d="M211 224 L211 1251 L70 1251 L70 1475 L622 1475 L622 1251 L481 1251 L481 224 L622 224 L622 0 Q526 -76 494 -115 Q448 -170 448 -222 Q448 -294 528 -294 L624 -294 L624 -459 L516 -459 Q379 -459 315 -416 Q248 -372 248 -272 Q248 -172 346 -81 Q370 -60 455 0 L70 0 L70 224 L211 224 Z " />
<glyph glyph-name="iogonek" unicode="&#x12f;" horiz-adv-x="650" d="M214 224 L214 775 L73 775 L73 999 L474 999 L474 224 L613 224 L613 0 Q518 -77 486 -115 Q441 -171 441 -222 Q441 -294 520 -294 L616 -294 L616 -459 L507 -459 Q371 -459 307 -416 Q240 -372 240 -272 Q240 -172 338 -81 Q362 -59 447 0 L59 0 L59 224 L214 224 Z M210 1146 L210 1423 L477 1423 L477 1146 L210 1146 Z " />
<glyph glyph-name="Idotaccent" unicode="&#x130;" horiz-adv-x="691" d="M211 224 L211 1251 L70 1251 L70 1475 L622 1475 L622 1251 L481 1251 L481 224 L622 224 L622 0 L70 0 L70 224 L211 224 Z M212 1615 L212 1892 L479 1892 L479 1615 L212 1615 Z " />
<glyph glyph-name="IJ" unicode="&#x132;" horiz-adv-x="1381" d="M211 224 L211 1251 L70 1251 L70 1475 L622 1475 L622 1251 L481 1251 L481 224 L622 224 L622 0 L70 0 L70 224 L211 224 Z M906 1251 L752 1251 L752 1475 L1317 1475 L1317 1251 L1176 1251 L1176 188 Q1176 -13 1145 -108 Q1086 -290 893 -334 Q835 -347 714 -351 L714 -127 Q773 -124 803 -115 Q866 -96 888 -22 Q906 37 906 144 L906 1251 Z " />
<glyph glyph-name="ij" unicode="&#x133;" horiz-adv-x="1292" d="M214 224 L214 775 L73 775 L73 999 L474 999 L474 224 L613 224 L613 0 L59 0 L59 224 L214 224 Z M210 1136 L210 1413 L477 1413 L477 1136 L210 1136 Z M730 775 L730 999 L1129 999 L1129 19 Q1129 -146 1100 -223 Q1045 -372 866 -408 Q818 -417 711 -422 L711 -198 Q797 -194 826 -166 Q869 -127 869 -11 L869 775 L730 775 Z M866 1136 L866 1413 L1133 1413 L1133 1136 L866 1136 Z " />
<glyph glyph-name="Jcircumflex" unicode="&#x134;" horiz-adv-x="690" d="M211 1251 L57 1251 L57 1475 L622 1475 L622 1251 L481 1251 L481 188 Q481 -13 450 -108 Q391 -290 198 -334 Q140 -347 19 -351 L19 -127 Q78 -124 108 -115 Q171 -96 193 -22 Q211 37 211 144 L211 1251 Z M341 1795 L190 1606 L19 1606 L226 1948 L456 1948 L662 1606 L490 1606 L341 1795 Z " />
<glyph glyph-name="jcircumflex" unicode="&#x135;" horiz-adv-x="642" d="M82 775 L82 999 L481 999 L481 19 Q481 -145 452 -223 Q397 -372 218 -408 Q170 -417 62 -422 L62 -198 Q149 -194 178 -166 Q221 -128 221 -11 L221 775 L82 775 Z M297 1334 L143 1137 L-28 1137 L182 1487 L413 1487 L622 1137 L450 1137 L297 1334 Z " />
<glyph glyph-name="Kcommaaccent" unicode="&#x136;" horiz-adv-x="1326" d="M210 224 L210 1251 L69 1251 L69 1475 L604 1475 L604 1251 L480 1251 L480 809 L872 1252 L759 1251 L759 1475 L1273 1475 L1273 1251 L1171 1251 L760 795 L1173 224 L1299 224 L1299 0 L754 0 L754 224 L863 224 L480 756 L480 224 L591 224 L591 0 L69 0 L69 224 L210 224 Z M407 -491 L559 -141 L825 -141 L580 -491 L407 -491 Z " />
<glyph glyph-name="kcommaaccent" unicode="&#x137;" horiz-adv-x="1165" d="M198 224 L198 1251 L57 1251 L57 1475 L458 1475 L458 568 L717 799 L606 799 L606 999 L1099 999 L1099 778 L997 778 L744 550 L1050 224 L1149 224 L1149 0 L674 0 L674 207 L756 207 L458 537 L458 207 L547 207 L547 0 L57 0 L57 224 L198 224 Z M347 -491 L499 -141 L765 -141 L520 -491 L347 -491 Z " />
<glyph glyph-name="kgreenlandic" unicode="&#x138;" horiz-adv-x="1165" d="M198 224 L198 775 L57 775 L57 999 L458 999 L458 568 L717 799 L606 799 L606 999 L1099 999 L1099 778 L997 778 L744 550 L1050 224 L1149 224 L1149 0 L674 0 L674 207 L756 207 L458 537 L458 207 L547 207 L547 0 L57 0 L57 224 L198 224 Z " />
<glyph glyph-name="Lacute" unicode="&#x139;" horiz-adv-x="1171" d="M210 224 L210 1251 L69 1251 L69 1475 L653 1475 L653 1251 L480 1251 L480 224 L886 224 L886 454 L1120 454 L1120 0 L69 0 L69 224 L210 224 Z M282 1606 L474 1948 L740 1948 L455 1606 L282 1606 Z " />
<glyph glyph-name="lacute" unicode="&#x13a;" horiz-adv-x="649" d="M213 224 L213 1251 L72 1251 L72 1475 L473 1475 L473 224 L612 224 L612 0 L58 0 L58 224 L213 224 Z M190 1606 L389 1956 L655 1956 L363 1606 L190 1606 Z " />
<glyph glyph-name="Lcommaaccent" unicode="&#x13b;" horiz-adv-x="1171" d="M210 224 L210 1251 L69 1251 L69 1475 L653 1475 L653 1251 L480 1251 L480 224 L886 224 L886 454 L1120 454 L1120 0 L69 0 L69 224 L210 224 Z M330 -491 L482 -141 L748 -141 L503 -491 L330 -491 Z " />
<glyph glyph-name="lcommaaccent" unicode="&#x13c;" horiz-adv-x="649" d="M211 224 L211 1251 L70 1251 L70 1475 L471 1475 L471 224 L610 224 L610 0 L56 0 L56 224 L211 224 Z M69 -491 L221 -141 L487 -141 L242 -491 L69 -491 Z " />
<glyph glyph-name="Lcaron" unicode="&#x13d;" horiz-adv-x="1171" d="M210 224 L210 1251 L69 1251 L69 1475 L653 1475 L653 1251 L480 1251 L480 224 L886 224 L886 454 L1120 454 L1120 0 L69 0 L69 224 L210 224 Z M725 958 L851 1475 L1132 1475 L919 958 L725 958 Z " />
<glyph glyph-name="lcaron" unicode="&#x13e;" horiz-adv-x="974" d="M213 224 L213 1251 L72 1251 L72 1475 L473 1475 L473 224 L612 224 L612 0 L58 0 L58 224 L213 224 Z M608 958 L734 1475 L1015 1475 L802 958 L608 958 Z " />
<glyph glyph-name="Ldot" unicode="&#x13f;" horiz-adv-x="1171" d="M210 224 L210 1251 L69 1251 L69 1475 L653 1475 L653 1251 L480 1251 L480 224 L886 224 L886 454 L1120 454 L1120 0 L69 0 L69 224 L210 224 Z M738 536 L738 833 L1015 833 L1015 536 L738 536 Z " />
<glyph glyph-name="ldot" unicode="&#x140;" horiz-adv-x="938" d="M213 224 L213 1251 L72 1251 L72 1475 L473 1475 L473 224 L612 224 L612 0 L58 0 L58 224 L213 224 Z M673 442 L673 739 L950 739 L950 442 L673 442 Z " />
<glyph glyph-name="Lslash" unicode="&#x141;" horiz-adv-x="1171" d="M209 224 L209 525 L13 401 L13 639 L209 763 L209 1251 L69 1251 L69 1475 L653 1475 L653 1251 L479 1251 L479 933 L746 1101 L746 862 L479 694 L479 224 L886 224 L886 454 L1120 454 L1120 0 L69 0 L69 224 L209 224 Z " />
<glyph glyph-name="lslash" unicode="&#x142;" horiz-adv-x="710" d="M224 224 L224 535 L27 412 L27 647 L224 770 L224 1251 L82 1251 L82 1475 L484 1475 L484 930 L680 1052 L680 817 L484 695 L484 224 L623 224 L623 0 L69 0 L69 224 L224 224 Z " />
<glyph glyph-name="Nacute" unicode="&#x143;" horiz-adv-x="1474" d="M210 224 L210 1251 L69 1251 L69 1475 L530 1475 L941 698 Q969 645 1031 499 Q1025 643 1025 717 L1025 1251 L867 1251 L867 1475 L1411 1475 L1411 1251 L1270 1251 L1270 -27 L1057 -27 L534 968 Q525 986 447 1161 Q455 967 455 964 L455 224 L609 224 L609 0 L69 0 L69 224 L210 224 Z M625 1606 L817 1948 L1083 1948 L798 1606 L625 1606 Z " />
<glyph glyph-name="nacute" unicode="&#x144;" horiz-adv-x="1302" d="M204 224 L204 775 L63 775 L63 999 L464 999 L464 885 Q551 952 595 976 Q688 1028 797 1028 Q987 1028 1059 896 Q1113 797 1113 576 L1113 224 L1250 224 L1250 0 L732 0 L732 224 L853 224 L853 589 Q853 680 834 725 Q804 796 723 796 Q648 796 565 739 Q527 713 464 651 L464 224 L593 224 L593 0 L63 0 L63 224 L204 224 Z M527 1137 L726 1487 L992 1487 L700 1137 L527 1137 Z " />
<glyph glyph-name="Ncommaaccent" unicode="&#x145;" horiz-adv-x="1474" d="M210 224 L210 1251 L69 1251 L69 1475 L530 1475 L941 698 Q969 645 1031 499 Q1025 643 1025 717 L1025 1251 L867 1251 L867 1475 L1411 1475 L1411 1251 L1270 1251 L1270 -27 L1057 -27 L534 968 Q525 986 447 1161 Q455 967 455 964 L455 224 L609 224 L609 0 L69 0 L69 224 L210 224 Z M506 -491 L658 -141 L924 -141 L679 -491 L506 -491 Z " />
<glyph glyph-name="ncommaaccent" unicode="&#x146;" horiz-adv-x="1302" d="M204 224 L204 775 L63 775 L63 999 L464 999 L464 885 Q551 952 595 976 Q688 1028 797 1028 Q987 1028 1059 896 Q1113 797 1113 576 L1113 224 L1250 224 L1250 0 L732 0 L732 224 L853 224 L853 589 Q853 680 834 725 Q804 796 723 796 Q648 796 565 739 Q527 713 464 651 L464 224 L593 224 L593 0 L63 0 L63 224 L204 224 Z M388 -491 L540 -141 L806 -141 L561 -491 L388 -491 Z " />
<glyph glyph-name="Ncaron" unicode="&#x147;" horiz-adv-x="1474" d="M210 224 L210 1251 L69 1251 L69 1475 L530 1475 L941 698 Q969 645 1031 499 Q1025 643 1025 717 L1025 1251 L867 1251 L867 1475 L1411 1475 L1411 1251 L1270 1251 L1270 -27 L1057 -27 L534 968 Q525 986 447 1161 Q455 967 455 964 L455 224 L609 224 L609 0 L69 0 L69 224 L210 224 Z M732 1759 L882 1948 L1054 1948 L848 1606 L617 1606 L411 1948 L581 1948 L732 1759 Z " />
<glyph glyph-name="ncaron" unicode="&#x148;" horiz-adv-x="1302" d="M204 224 L204 775 L63 775 L63 999 L464 999 L464 885 Q551 952 595 976 Q688 1028 797 1028 Q987 1028 1059 896 Q1113 797 1113 576 L1113 224 L1250 224 L1250 0 L732 0 L732 224 L853 224 L853 589 Q853 680 834 725 Q804 796 723 796 Q648 796 565 739 Q527 713 464 651 L464 224 L593 224 L593 0 L63 0 L63 224 L204 224 Z M627 1290 L780 1487 L952 1487 L743 1137 L512 1137 L302 1487 L473 1487 L627 1290 Z " />
<glyph glyph-name="napostrophe" unicode="&#x149;" horiz-adv-x="1378" d="M3 1091 L85 1475 L366 1475 L197 1091 L3 1091 Z M279 224 L279 775 L138 775 L138 999 L539 999 L539 885 Q626 952 670 976 Q764 1028 872 1028 Q1062 1028 1134 896 Q1188 797 1188 576 L1188 224 L1326 224 L1326 0 L808 0 L808 224 L928 224 L928 589 Q928 680 909 725 Q880 796 799 796 Q723 796 640 739 Q601 712 539 651 L539 224 L668 224 L668 0 L138 0 L138 224 L279 224 Z " />
<glyph glyph-name="Eng" unicode="&#x14a;" horiz-adv-x="1474" d="M210 224 L210 1251 L69 1251 L69 1475 L530 1475 L942 698 Q975 635 1031 499 Q1025 643 1025 717 L1025 1251 L867 1251 L867 1475 L1411 1475 L1411 1251 L1270 1251 L1270 20 Q1270 -145 1241 -223 Q1187 -371 1008 -407 Q960 -417 852 -422 L852 -198 Q938 -193 968 -166 Q1011 -127 1011 -11 L1011 63 L534 968 Q525 986 447 1161 Q455 967 455 964 L455 224 L609 224 L609 0 L69 0 L69 224 L210 224 Z " />
<glyph glyph-name="eng" unicode="&#x14b;" horiz-adv-x="1302" d="M204 224 L204 775 L63 775 L63 999 L464 999 L464 885 Q551 952 595 976 Q688 1028 797 1028 Q987 1028 1059 896 Q1113 797 1113 576 L1113 20 Q1113 -145 1084 -223 Q1029 -371 850 -407 Q802 -417 694 -422 L694 -198 Q780 -193 810 -166 Q853 -127 853 -11 L853 589 Q853 680 834 725 Q804 796 724 796 Q648 796 565 739 Q527 713 464 651 L464 224 L593 224 L593 0 L63 0 L63 224 L204 224 Z " />
<glyph glyph-name="Omacron" unicode="&#x14c;" horiz-adv-x="1716" d="M858 1506 Q1109 1506 1308 1372 Q1497 1245 1580 1033 Q1635 894 1635 738 Q1635 459 1472 254 Q1355 107 1177 32 Q1029 -31 860 -31 Q606 -31 408 103 Q219 230 136 443 Q81 582 81 747 Q81 923 157 1083 Q256 1293 472 1411 Q646 1506 858 1506 Z M858 1271 Q633 1271 489 1112 Q355 965 355 745 Q355 512 489 363 Q632 204 859 204 Q1084 204 1227 363 Q1361 512 1361 738 Q1361 965 1227 1112 Q1082 1271 858 1271 Z M571 1666 L571 1843 L1145 1843 L1145 1666 L571 1666 Z " />
<glyph glyph-name="omacron" unicode="&#x14d;" horiz-adv-x="1218" d="M609 1028 Q847 1028 996 888 Q1151 743 1151 500 Q1151 256 996 111 Q848 -29 611 -29 Q370 -29 222 111 Q67 257 67 507 Q67 745 222 888 Q373 1028 609 1028 Z M609 804 Q478 804 401 715 Q331 636 331 504 Q331 364 401 284 Q478 195 610 195 Q740 195 817 284 Q887 364 887 500 Q887 637 817 715 Q738 804 609 804 Z M322 1198 L322 1375 L896 1375 L896 1198 L322 1198 Z " />
<glyph glyph-name="Obreve" unicode="&#x14e;" horiz-adv-x="1716" d="M858 1506 Q1109 1506 1308 1372 Q1497 1245 1580 1033 Q1635 894 1635 738 Q1635 459 1472 254 Q1355 107 1177 32 Q1029 -31 860 -31 Q606 -31 408 103 Q219 230 136 443 Q81 582 81 747 Q81 923 157 1083 Q256 1293 472 1411 Q646 1506 858 1506 Z M858 1271 Q633 1271 489 1112 Q355 965 355 745 Q355 512 489 363 Q632 204 859 204 Q1084 204 1227 363 Q1361 512 1361 738 Q1361 965 1227 1112 Q1082 1271 858 1271 Z M547 1922 L696 1922 Q702 1855 725 1828 Q766 1781 857 1781 Q957 1781 994 1836 Q1011 1861 1017 1922 L1166 1922 Q1155 1786 1113 1717 Q1043 1605 857 1605 Q654 1605 588 1739 Q556 1804 547 1922 Z " />
<glyph glyph-name="obreve" unicode="&#x14f;" horiz-adv-x="1218" d="M609 1028 Q847 1028 996 888 Q1151 743 1151 500 Q1151 256 996 111 Q848 -29 611 -29 Q370 -29 222 111 Q67 257 67 507 Q67 745 222 888 Q373 1028 609 1028 Z M609 804 Q478 804 401 715 Q331 636 331 504 Q331 364 401 284 Q478 195 610 195 Q740 195 817 284 Q887 364 887 500 Q887 637 817 715 Q738 804 609 804 Z M298 1453 L447 1453 Q453 1387 476 1359 Q517 1312 608 1312 Q707 1312 745 1368 Q762 1392 768 1453 L917 1453 Q906 1317 864 1248 Q794 1136 608 1136 Q405 1136 339 1270 Q307 1336 298 1453 Z " />
<glyph glyph-name="Ohungarumlaut" unicode="&#x150;" horiz-adv-x="1716" d="M858 1506 Q1109 1506 1308 1372 Q1497 1245 1580 1033 Q1635 894 1635 738 Q1635 459 1472 254 Q1355 107 1177 32 Q1029 -31 860 -31 Q606 -31 408 103 Q219 230 136 443 Q81 582 81 747 Q81 923 157 1083 Q256 1293 472 1411 Q646 1506 858 1506 Z M858 1271 Q633 1271 489 1112 Q355 965 355 745 Q355 512 489 363 Q632 204 859 204 Q1084 204 1227 363 Q1361 512 1361 738 Q1361 965 1227 1112 Q1082 1271 858 1271 Z M611 1606 L746 1948 L976 1948 L754 1606 L611 1606 Z M910 1606 L1075 1948 L1315 1948 L1056 1606 L910 1606 Z " />
<glyph glyph-name="ohungarumlaut" unicode="&#x151;" horiz-adv-x="1218" d="M609 1028 Q847 1028 996 888 Q1151 743 1151 500 Q1151 256 996 111 Q848 -29 611 -29 Q370 -29 222 111 Q67 257 67 507 Q67 745 222 888 Q373 1028 609 1028 Z M609 804 Q478 804 401 715 Q331 636 331 504 Q331 364 401 284 Q478 195 610 195 Q740 195 817 284 Q887 364 887 500 Q887 637 817 715 Q738 804 609 804 Z M379 1137 L522 1487 L752 1487 L522 1137 L379 1137 Z M678 1137 L850 1487 L1090 1487 L824 1137 L678 1137 Z " />
<glyph glyph-name="Racute" unicode="&#x154;" horiz-adv-x="1314" d="M210 224 L210 1251 L69 1251 L69 1475 L675 1475 Q825 1475 908 1458 Q1046 1430 1126 1315 Q1203 1203 1203 1049 Q1203 878 1101 775 Q1067 741 964 682 Q1025 650 1057 598 Q1084 553 1114 455 L1185 224 L1315 224 L1315 0 L949 0 L888 268 Q849 437 798 507 Q759 561 679 578 Q629 588 556 588 L480 588 L480 224 L641 224 L641 0 L69 0 L69 224 L210 224 Z M480 805 L611 805 Q778 805 845 851 Q928 908 928 1035 Q928 1163 840 1215 Q779 1251 639 1251 L480 1251 L480 805 Z M508 1606 L700 1948 L966 1948 L681 1606 L508 1606 Z " />
<glyph glyph-name="racute" unicode="&#x155;" horiz-adv-x="842" d="M204 224 L204 775 L63 775 L63 999 L452 999 L452 877 Q550 962 601 987 Q684 1028 786 1028 L819 1028 L819 779 L773 779 Q666 779 593 738 Q539 707 464 630 L464 224 L613 224 L613 0 L63 0 L63 224 L204 224 Z M331 1137 L530 1487 L796 1487 L504 1137 L331 1137 Z " />
<glyph glyph-name="Rcommaaccent" unicode="&#x156;" horiz-adv-x="1314" d="M210 224 L210 1251 L69 1251 L69 1475 L675 1475 Q825 1475 908 1458 Q1046 1430 1126 1315 Q1203 1203 1203 1049 Q1203 878 1101 775 Q1067 741 964 682 Q1025 650 1057 598 Q1084 553 1114 455 L1185 224 L1315 224 L1315 0 L949 0 L888 268 Q849 437 798 507 Q759 561 679 578 Q629 588 556 588 L480 588 L480 224 L641 224 L641 0 L69 0 L69 224 L210 224 Z M480 805 L611 805 Q778 805 845 851 Q928 908 928 1035 Q928 1163 840 1215 Q779 1251 639 1251 L480 1251 L480 805 Z M444 -491 L596 -141 L862 -141 L617 -491 L444 -491 Z " />
<glyph glyph-name="rcommaaccent" unicode="&#x157;" horiz-adv-x="842" d="M204 224 L204 775 L63 775 L63 999 L452 999 L452 877 Q550 962 601 987 Q684 1028 786 1028 L819 1028 L819 779 L773 779 Q666 779 593 738 Q539 707 464 630 L464 224 L613 224 L613 0 L63 0 L63 224 L204 224 Z M81 -491 L233 -141 L499 -141 L254 -491 L81 -491 Z " />
<glyph glyph-name="Rcaron" unicode="&#x158;" horiz-adv-x="1314" d="M210 224 L210 1251 L69 1251 L69 1475 L675 1475 Q825 1475 908 1458 Q1046 1430 1126 1315 Q1203 1203 1203 1049 Q1203 878 1101 775 Q1067 741 964 682 Q1025 650 1057 598 Q1084 553 1114 455 L1185 224 L1315 224 L1315 0 L949 0 L888 268 Q849 437 798 507 Q759 561 679 578 Q629 588 556 588 L480 588 L480 224 L641 224 L641 0 L69 0 L69 224 L210 224 Z M480 805 L611 805 Q778 805 845 851 Q928 908 928 1035 Q928 1163 840 1215 Q779 1251 639 1251 L480 1251 L480 805 Z M620 1759 L770 1948 L942 1948 L736 1606 L505 1606 L299 1948 L469 1948 L620 1759 Z " />
<glyph glyph-name="rcaron" unicode="&#x159;" horiz-adv-x="842" d="M204 224 L204 775 L63 775 L63 999 L452 999 L452 877 Q550 962 601 987 Q684 1028 786 1028 L819 1028 L819 779 L773 779 Q666 779 593 738 Q539 707 464 630 L464 224 L613 224 L613 0 L63 0 L63 224 L204 224 Z M456 1290 L609 1487 L781 1487 L572 1137 L341 1137 L131 1487 L302 1487 L456 1290 Z " />
<glyph glyph-name="Sacute" unicode="&#x15a;" horiz-adv-x="1248" d="M109 0 L109 474 L343 474 L343 441 Q343 349 406 288 Q492 204 650 204 Q777 204 845 261 Q913 319 913 411 Q913 509 821 568 Q763 605 539 669 Q381 714 318 745 Q115 844 115 1078 Q115 1283 243 1397 Q365 1506 564 1506 Q699 1506 794 1457 Q821 1442 863 1413 L863 1475 L1080 1475 L1080 1021 L846 1021 L846 1039 Q846 1124 801 1183 Q734 1271 585 1271 Q495 1271 439 1229 Q379 1185 379 1104 Q379 1017 459 969 Q514 935 702 887 Q872 844 948 804 Q1177 685 1177 427 Q1177 221 1052 101 Q914 -31 666 -31 Q487 -31 326 62 L326 0 L109 0 Z M513 1606 L705 1948 L971 1948 L686 1606 L513 1606 Z " />
<glyph glyph-name="sacute" unicode="&#x15b;" horiz-adv-x="1027" d="M83 0 L83 354 L300 354 L300 319 Q300 272 318 248 Q372 177 546 177 Q635 177 678 208 Q719 237 719 285 Q719 327 671 352 Q645 366 475 396 Q256 435 169 502 Q78 573 78 710 Q78 856 179 944 Q275 1028 444 1028 Q549 1028 624 996 Q653 983 701 953 L701 999 L895 999 L895 679 L678 679 L678 692 Q678 747 633 779 Q574 822 477 822 Q333 822 333 730 Q333 685 395 659 Q425 647 571 617 Q793 572 863 520 Q965 443 965 293 Q965 142 858 54 Q756 -29 564 -29 Q408 -29 277 46 L277 0 L83 0 Z M390 1137 L589 1487 L855 1487 L563 1137 L390 1137 Z " />
<glyph glyph-name="Scircumflex" unicode="&#x15c;" horiz-adv-x="1248" d="M109 0 L109 474 L343 474 L343 441 Q343 349 406 288 Q492 204 650 204 Q777 204 845 261 Q913 319 913 411 Q913 509 821 568 Q763 605 539 669 Q381 714 318 745 Q115 844 115 1078 Q115 1283 243 1397 Q365 1506 564 1506 Q699 1506 794 1457 Q821 1442 863 1413 L863 1475 L1080 1475 L1080 1021 L846 1021 L846 1039 Q846 1124 801 1183 Q734 1271 585 1271 Q495 1271 439 1229 Q379 1185 379 1104 Q379 1017 459 969 Q514 935 702 887 Q872 844 948 804 Q1177 685 1177 427 Q1177 221 1052 101 Q914 -31 666 -31 Q487 -31 326 62 L326 0 L109 0 Z M626 1795 L475 1606 L304 1606 L511 1948 L741 1948 L947 1606 L775 1606 L626 1795 Z " />
<glyph glyph-name="scircumflex" unicode="&#x15d;" horiz-adv-x="1027" d="M83 0 L83 354 L300 354 L300 319 Q300 272 318 248 Q372 177 546 177 Q635 177 678 208 Q719 237 719 285 Q719 327 671 352 Q645 366 475 396 Q256 435 169 502 Q78 573 78 710 Q78 856 179 944 Q275 1028 444 1028 Q549 1028 624 996 Q653 983 701 953 L701 999 L895 999 L895 679 L678 679 L678 692 Q678 747 633 779 Q574 822 477 822 Q333 822 333 730 Q333 685 395 659 Q425 647 571 617 Q793 572 863 520 Q965 443 965 293 Q965 142 858 54 Q756 -29 564 -29 Q408 -29 277 46 L277 0 L83 0 Z M513 1334 L359 1137 L188 1137 L398 1487 L629 1487 L838 1137 L666 1137 L513 1334 Z " />
<glyph glyph-name="Scedilla" unicode="&#x15e;" horiz-adv-x="1248" d="M109 0 L109 474 L343 474 L343 441 Q343 349 406 288 Q492 204 650 204 Q776 204 844 261 Q912 318 912 411 Q912 509 820 568 Q762 605 539 669 Q381 714 317 745 Q115 843 115 1078 Q115 1283 243 1397 Q365 1506 564 1506 Q699 1506 794 1457 Q821 1442 863 1413 L863 1475 L1080 1475 L1080 1021 L846 1021 L846 1039 Q846 1124 801 1183 Q734 1271 585 1271 Q494 1271 438 1229 Q378 1185 378 1104 Q378 1017 458 968 Q513 935 702 887 Q872 844 948 804 Q1177 684 1177 427 Q1177 147 956 33 Q851 -20 706 -30 L676 -85 Q754 -93 794 -115 Q884 -164 884 -278 Q884 -398 792 -455 Q722 -499 601 -499 Q467 -499 336 -459 L336 -270 Q500 -334 596 -334 Q683 -334 683 -277 Q683 -239 643 -229 Q621 -223 579 -223 Q560 -223 498 -228 L498 -107 L543 -19 Q460 -1 422 14 Q385 28 326 62 L326 0 L109 0 Z " />
<glyph glyph-name="scedilla" unicode="&#x15f;" horiz-adv-x="1027" d="M83 0 L83 354 L301 354 L301 319 Q301 272 319 248 Q373 178 546 178 Q635 178 678 208 Q719 238 719 286 Q719 328 672 353 Q646 367 476 397 Q256 436 170 503 Q78 574 78 710 Q78 857 180 944 Q277 1028 444 1028 Q550 1028 625 996 Q653 983 701 953 L701 999 L895 999 L895 679 L678 679 L678 692 Q678 747 634 779 Q574 822 477 822 Q334 822 334 730 Q334 685 396 659 Q426 647 572 617 Q793 572 863 520 Q965 443 965 293 Q965 115 823 30 Q744 -16 608 -27 L578 -84 Q656 -93 696 -115 Q785 -164 785 -278 Q785 -398 694 -455 Q623 -499 503 -499 Q372 -499 238 -459 L238 -270 Q403 -334 498 -334 Q585 -334 585 -276 Q585 -238 545 -228 Q523 -222 481 -222 Q467 -222 400 -228 L400 -107 L445 -18 Q357 1 278 46 L278 0 L83 0 Z " />
<glyph glyph-name="Scaron" unicode="&#x160;" horiz-adv-x="1248" d="M109 0 L109 474 L343 474 L343 441 Q343 349 406 288 Q492 204 650 204 Q777 204 845 261 Q913 319 913 411 Q913 509 821 568 Q763 605 539 669 Q381 714 318 745 Q115 844 115 1078 Q115 1283 243 1397 Q365 1506 564 1506 Q699 1506 794 1457 Q821 1442 863 1413 L863 1475 L1080 1475 L1080 1021 L846 1021 L846 1039 Q846 1124 801 1183 Q734 1271 585 1271 Q495 1271 439 1229 Q379 1185 379 1104 Q379 1017 459 969 Q514 935 702 887 Q872 844 948 804 Q1177 685 1177 427 Q1177 221 1052 101 Q914 -31 666 -31 Q487 -31 326 62 L326 0 L109 0 Z M611 1759 L761 1948 L933 1948 L727 1606 L496 1606 L290 1948 L460 1948 L611 1759 Z " />
<glyph glyph-name="scaron" unicode="&#x161;" horiz-adv-x="1027" d="M83 0 L83 354 L300 354 L300 319 Q300 272 318 248 Q372 177 546 177 Q635 177 678 208 Q719 237 719 285 Q719 327 671 352 Q645 366 475 396 Q256 435 169 502 Q78 573 78 710 Q78 856 179 944 Q275 1028 444 1028 Q549 1028 624 996 Q653 983 701 953 L701 999 L895 999 L895 679 L678 679 L678 692 Q678 747 633 779 Q574 822 477 822 Q333 822 333 730 Q333 685 395 659 Q425 647 571 617 Q793 572 863 520 Q965 443 965 293 Q965 142 858 54 Q756 -29 564 -29 Q408 -29 277 46 L277 0 L83 0 Z M523 1290 L676 1487 L848 1487 L639 1137 L408 1137 L198 1487 L369 1487 L523 1290 Z " />
<glyph glyph-name="Tcommaaccent" unicode="&#x162;" horiz-adv-x="1290" d="M510 224 L510 1251 L274 1251 L274 1062 L40 1062 L40 1475 L1249 1475 L1249 1062 L1015 1062 L1015 1251 L780 1251 L780 224 L993 224 L993 0 L298 0 L298 224 L510 224 Z M389 -491 L541 -141 L807 -141 L562 -491 L389 -491 Z " />
<glyph glyph-name="tcommaaccent" unicode="&#x163;" horiz-adv-x="754" d="M196 775 L48 775 L48 999 L196 999 L196 1325 L456 1325 L456 999 L697 999 L697 775 L456 775 L456 393 Q456 292 477 260 Q500 224 569 224 L700 224 L700 0 L567 0 Q398 0 309 63 Q196 143 196 344 L196 775 Z M146 -491 L298 -141 L564 -141 L319 -491 L146 -491 Z " />
<glyph glyph-name="Tcaron" unicode="&#x164;" horiz-adv-x="1290" d="M510 224 L510 1251 L274 1251 L274 1062 L40 1062 L40 1475 L1249 1475 L1249 1062 L1015 1062 L1015 1251 L780 1251 L780 224 L993 224 L993 0 L298 0 L298 224 L510 224 Z M644 1759 L794 1948 L966 1948 L760 1606 L529 1606 L323 1948 L493 1948 L644 1759 Z " />
<glyph glyph-name="tcaron" unicode="&#x165;" horiz-adv-x="1025" d="M196 775 L48 775 L48 999 L196 999 L196 1325 L456 1325 L456 999 L697 999 L697 775 L456 775 L456 393 Q456 292 477 260 Q500 224 569 224 L700 224 L700 0 L567 0 Q398 0 309 63 Q196 143 196 344 L196 775 Z M659 1107 L785 1624 L1066 1624 L853 1107 L659 1107 Z " />
<glyph glyph-name="Tbar" unicode="&#x166;" horiz-adv-x="1290" d="M510 224 L510 686 L234 686 L234 880 L510 880 L510 1251 L274 1251 L274 1062 L40 1062 L40 1475 L1249 1475 L1249 1062 L1015 1062 L1015 1251 L780 1251 L780 880 L1055 880 L1055 686 L780 686 L780 224 L993 224 L993 0 L298 0 L298 224 L510 224 Z " />
<glyph glyph-name="tbar" unicode="&#x167;" horiz-adv-x="754" d="M196 775 L48 775 L48 999 L196 999 L196 1325 L456 1325 L456 999 L697 999 L697 775 L456 775 L456 664 L697 664 L697 516 L456 516 L456 394 Q456 292 477 260 Q500 224 569 224 L700 224 L700 0 L567 0 Q398 0 309 63 Q196 143 196 344 L196 516 L48 516 L48 664 L196 664 L196 775 Z " />
<glyph glyph-name="Utilde" unicode="&#x168;" horiz-adv-x="1453" d="M59 1251 L59 1475 L627 1475 L627 1251 L470 1251 L470 586 Q470 452 487 386 Q532 211 727 211 Q882 211 940 317 Q967 367 977 438 Q984 487 984 586 L984 1251 L827 1251 L827 1475 L1395 1475 L1395 1251 L1254 1251 L1254 628 Q1254 417 1231 313 Q1194 147 1068 59 Q937 -31 727 -31 Q412 -31 284 165 Q224 259 207 411 Q200 479 200 628 L200 1251 L59 1251 Z M556 1634 L396 1634 Q433 1878 630 1878 Q678 1878 731 1857 Q756 1848 813 1822 Q854 1803 878 1803 Q927 1803 949 1878 L1111 1878 Q1091 1772 1047 1712 Q987 1628 867 1628 Q817 1628 774 1645 Q755 1653 682 1686 Q646 1702 628 1702 Q583 1702 556 1634 Z " />
<glyph glyph-name="utilde" unicode="&#x169;" horiz-adv-x="1247" d="M189 775 L52 775 L52 999 L449 999 L449 410 Q449 323 461 283 Q480 216 548 216 Q618 216 698 268 Q733 291 794 348 L794 775 L665 775 L665 999 L1052 999 L1052 224 L1193 224 L1193 0 L794 0 L794 114 Q707 51 668 31 Q577 -16 475 -16 Q301 -16 237 113 Q189 210 189 423 L189 775 Z M441 1165 L293 1165 Q328 1410 509 1410 Q554 1410 603 1389 Q624 1380 679 1353 Q717 1334 738 1334 Q783 1334 805 1409 L954 1409 Q935 1302 895 1243 Q840 1159 728 1159 Q684 1159 642 1177 Q623 1185 558 1218 Q525 1234 507 1234 Q466 1234 441 1165 Z " />
<glyph glyph-name="Umacron" unicode="&#x16a;" horiz-adv-x="1453" d="M59 1251 L59 1475 L627 1475 L627 1251 L470 1251 L470 586 Q470 452 487 386 Q532 211 727 211 Q882 211 940 317 Q967 367 977 438 Q984 487 984 586 L984 1251 L827 1251 L827 1475 L1395 1475 L1395 1251 L1254 1251 L1254 628 Q1254 417 1231 313 Q1194 147 1068 59 Q937 -31 727 -31 Q412 -31 284 165 Q224 259 207 411 Q200 479 200 628 L200 1251 L59 1251 Z M440 1666 L440 1843 L1014 1843 L1014 1666 L440 1666 Z " />
<glyph glyph-name="umacron" unicode="&#x16b;" horiz-adv-x="1247" d="M189 775 L52 775 L52 999 L449 999 L449 410 Q449 323 461 283 Q480 216 548 216 Q618 216 698 268 Q733 291 794 348 L794 775 L665 775 L665 999 L1052 999 L1052 224 L1193 224 L1193 0 L794 0 L794 114 Q707 51 668 31 Q577 -16 475 -16 Q301 -16 237 113 Q189 210 189 423 L189 775 Z M313 1198 L313 1375 L887 1375 L887 1198 L313 1198 Z " />
<glyph glyph-name="Ubreve" unicode="&#x16c;" horiz-adv-x="1453" d="M59 1251 L59 1475 L627 1475 L627 1251 L470 1251 L470 586 Q470 452 487 386 Q532 211 727 211 Q882 211 940 317 Q967 367 977 438 Q984 487 984 586 L984 1251 L827 1251 L827 1475 L1395 1475 L1395 1251 L1254 1251 L1254 628 Q1254 417 1231 313 Q1194 147 1068 59 Q937 -31 727 -31 Q412 -31 284 165 Q224 259 207 411 Q200 479 200 628 L200 1251 L59 1251 Z M416 1922 L565 1922 Q571 1855 594 1828 Q635 1781 726 1781 Q826 1781 863 1836 Q880 1861 886 1922 L1035 1922 Q1024 1786 982 1717 Q912 1605 726 1605 Q523 1605 457 1739 Q425 1804 416 1922 Z " />
<glyph glyph-name="ubreve" unicode="&#x16d;" horiz-adv-x="1247" d="M189 775 L52 775 L52 999 L449 999 L449 410 Q449 323 461 283 Q480 216 548 216 Q618 216 698 268 Q733 291 794 348 L794 775 L665 775 L665 999 L1052 999 L1052 224 L1193 224 L1193 0 L794 0 L794 114 Q707 51 668 31 Q577 -16 475 -16 Q301 -16 237 113 Q189 210 189 423 L189 775 Z M296 1453 L445 1453 Q451 1387 474 1359 Q515 1312 606 1312 Q705 1312 743 1368 Q760 1392 766 1453 L915 1453 Q904 1317 862 1248 Q792 1136 606 1136 Q403 1136 337 1270 Q305 1336 296 1453 Z " />
<glyph glyph-name="Uring" unicode="&#x16e;" horiz-adv-x="1453" d="M59 1251 L59 1475 L627 1475 L627 1251 L470 1251 L470 586 Q470 452 487 386 Q532 211 727 211 Q882 211 940 317 Q967 367 977 438 Q984 487 984 586 L984 1251 L827 1251 L827 1475 L1395 1475 L1395 1251 L1254 1251 L1254 628 Q1254 417 1231 313 Q1194 147 1068 59 Q937 -31 727 -31 Q412 -31 284 165 Q224 259 207 411 Q200 479 200 628 L200 1251 L59 1251 Z M728 2059 Q853 2059 923 1984 Q985 1917 985 1812 Q985 1708 923 1641 Q854 1566 729 1566 Q602 1566 533 1641 Q471 1708 471 1816 Q471 1918 533 1984 Q604 2059 728 2059 Z M728 1925 Q670 1925 642 1886 Q622 1859 622 1814 Q622 1700 728 1700 Q834 1700 834 1812 Q834 1925 728 1925 Z " />
<glyph glyph-name="uring" unicode="&#x16f;" horiz-adv-x="1247" d="M189 775 L52 775 L52 999 L449 999 L449 410 Q449 323 461 283 Q480 216 548 216 Q618 216 698 268 Q733 291 794 348 L794 775 L665 775 L665 999 L1052 999 L1052 224 L1193 224 L1193 0 L794 0 L794 114 Q707 51 668 31 Q577 -16 475 -16 Q301 -16 237 113 Q189 210 189 423 L189 775 Z M607 1608 Q733 1608 802 1533 Q864 1466 864 1362 Q864 1257 802 1190 Q733 1115 608 1115 Q481 1115 412 1190 Q350 1257 350 1365 Q350 1467 412 1533 Q483 1608 607 1608 Z M607 1474 Q549 1474 521 1435 Q501 1408 501 1363 Q501 1249 607 1249 Q713 1249 713 1362 Q713 1474 607 1474 Z " />
<glyph glyph-name="Uhungarumlaut" unicode="&#x170;" horiz-adv-x="1453" d="M59 1251 L59 1475 L627 1475 L627 1251 L470 1251 L470 586 Q470 452 487 386 Q532 211 727 211 Q882 211 940 317 Q967 367 977 438 Q984 487 984 586 L984 1251 L827 1251 L827 1475 L1395 1475 L1395 1251 L1254 1251 L1254 628 Q1254 417 1231 313 Q1194 147 1068 59 Q937 -31 727 -31 Q412 -31 284 165 Q224 259 207 411 Q200 479 200 628 L200 1251 L59 1251 Z M502 1606 L637 1948 L867 1948 L645 1606 L502 1606 Z M801 1606 L966 1948 L1206 1948 L947 1606 L801 1606 Z " />
<glyph glyph-name="uhungarumlaut" unicode="&#x171;" horiz-adv-x="1247" d="M189 775 L52 775 L52 999 L449 999 L449 410 Q449 323 461 283 Q480 216 548 216 Q618 216 698 268 Q733 291 794 348 L794 775 L665 775 L665 999 L1052 999 L1052 224 L1193 224 L1193 0 L794 0 L794 114 Q707 51 668 31 Q577 -16 475 -16 Q301 -16 237 113 Q189 210 189 423 L189 775 Z M341 1109 L490 1487 L720 1487 L484 1109 L341 1109 Z M630 1109 L809 1487 L1049 1487 L776 1109 L630 1109 Z " />
<glyph glyph-name="Uogonek" unicode="&#x172;" horiz-adv-x="1453" d="M59 1251 L59 1475 L627 1475 L627 1251 L470 1251 L470 586 Q470 452 487 386 Q532 211 727 211 Q881 211 940 317 Q967 366 977 438 Q984 487 984 586 L984 1251 L827 1251 L827 1475 L1395 1475 L1395 1251 L1254 1251 L1254 628 Q1254 437 1237 346 Q1182 43 874 -17 Q810 -69 783 -99 Q722 -164 722 -222 Q722 -294 802 -294 L898 -294 L898 -459 L789 -459 Q652 -459 588 -416 Q521 -372 521 -272 Q521 -143 686 -29 Q555 -19 480 10 Q290 83 231 282 Q200 389 200 628 L200 1251 L59 1251 Z " />
<glyph glyph-name="uogonek" unicode="&#x173;" horiz-adv-x="1247" d="M189 775 L52 775 L52 999 L449 999 L449 410 Q449 323 461 283 Q480 216 548 216 Q618 216 698 268 Q733 291 794 348 L794 775 L665 775 L665 999 L1052 999 L1052 224 L1193 224 L1193 0 Q1112 -63 1074 -105 Q1019 -165 1019 -222 Q1019 -294 1099 -294 L1196 -294 L1196 -459 L1087 -459 Q950 -459 886 -416 Q819 -372 819 -272 Q819 -172 917 -81 Q942 -58 1026 0 L794 0 L794 114 Q707 51 668 31 Q577 -16 475 -16 Q301 -16 237 113 Q189 210 189 423 L189 775 Z " />
<glyph glyph-name="Wcircumflex" unicode="&#x174;" horiz-adv-x="1985" d="M22 1251 L22 1475 L573 1475 L573 1251 L425 1251 L606 646 Q626 580 651 474 Q663 524 670 549 Q685 610 691 632 L932 1480 L1082 1480 L1333 632 Q1353 564 1370 474 Q1392 580 1420 672 L1593 1251 L1457 1251 L1457 1475 L1964 1475 L1964 1251 L1849 1251 L1457 -31 L1275 -31 L1043 770 Q1024 836 1005 953 Q983 839 965 776 L731 -31 L547 -31 L147 1251 L22 1251 Z M993 1795 L842 1606 L671 1606 L878 1948 L1108 1948 L1314 1606 L1142 1606 L993 1795 Z " />
<glyph glyph-name="wcircumflex" unicode="&#x175;" horiz-adv-x="1672" d="M133 775 L25 775 L25 999 L502 999 L502 775 L390 775 L491 492 Q516 422 538 338 Q567 434 597 510 L791 999 L891 999 L1085 484 Q1109 420 1134 338 Q1165 439 1181 479 L1295 775 L1173 775 L1173 999 L1646 999 L1646 775 L1545 775 L1219 -27 L1047 -27 L879 432 Q854 500 834 576 Q816 501 791 437 L618 -27 L449 -27 L133 775 Z M836 1334 L682 1137 L511 1137 L721 1487 L952 1487 L1161 1137 L989 1137 L836 1334 Z " />
<glyph glyph-name="Ycircumflex" unicode="&#x176;" horiz-adv-x="1282" d="M501 224 L501 673 L116 1251 L10 1251 L10 1475 L552 1475 L552 1251 L434 1251 L652 896 L870 1251 L753 1251 L753 1475 L1265 1475 L1265 1251 L1151 1251 L771 668 L771 224 L961 224 L961 0 L312 0 L312 224 L501 224 Z M661 1795 L510 1606 L339 1606 L546 1948 L776 1948 L982 1606 L810 1606 L661 1795 Z " />
<glyph glyph-name="ycircumflex" unicode="&#x177;" horiz-adv-x="1122" d="M106 775 L16 775 L16 999 L510 999 L510 775 L382 775 L515 458 Q540 400 569 309 Q600 392 641 487 L767 775 L633 775 L633 999 L1131 999 L1131 775 L1032 775 L638 -63 Q580 -185 546 -245 Q469 -377 334 -407 Q269 -421 153 -422 L153 -198 Q246 -198 282 -179 Q335 -152 389 -37 L431 50 L106 775 Z M561 1334 L407 1137 L236 1137 L446 1487 L677 1487 L886 1137 L714 1137 L561 1334 Z " />
<glyph glyph-name="Zacute" unicode="&#x179;" horiz-adv-x="1150" d="M14 0 L14 208 L733 1251 L305 1251 L305 1062 L71 1062 L71 1475 L1084 1475 L1084 1300 L349 224 L846 224 L846 440 L1080 440 L1080 0 L14 0 Z M470 1606 L662 1948 L928 1948 L643 1606 L470 1606 Z " />
<glyph glyph-name="zacute" unicode="&#x17a;" horiz-adv-x="970" d="M28 0 L28 224 L550 775 L299 775 L299 658 L75 658 L75 999 L884 999 L884 802 L345 224 L678 224 L678 378 L902 378 L902 0 L28 0 Z M383 1137 L582 1487 L848 1487 L556 1137 L383 1137 Z " />
<glyph glyph-name="Zdotaccent" unicode="&#x17b;" horiz-adv-x="1150" d="M14 0 L14 208 L733 1251 L305 1251 L305 1062 L71 1062 L71 1475 L1084 1475 L1084 1300 L349 224 L846 224 L846 440 L1080 440 L1080 0 L14 0 Z M492 1615 L492 1892 L759 1892 L759 1615 L492 1615 Z " />
<glyph glyph-name="zdotaccent" unicode="&#x17c;" horiz-adv-x="970" d="M28 0 L28 224 L550 775 L299 775 L299 658 L75 658 L75 999 L884 999 L884 802 L345 224 L678 224 L678 378 L902 378 L902 0 L28 0 Z M364 1146 L364 1423 L631 1423 L631 1146 L364 1146 Z " />
<glyph glyph-name="Zcaron" unicode="&#x17d;" horiz-adv-x="1150" d="M14 0 L14 208 L733 1251 L305 1251 L305 1062 L71 1062 L71 1475 L1084 1475 L1084 1300 L349 224 L846 224 L846 440 L1080 440 L1080 0 L14 0 Z M617 1759 L767 1948 L939 1948 L733 1606 L502 1606 L296 1948 L466 1948 L617 1759 Z " />
<glyph glyph-name="zcaron" unicode="&#x17e;" horiz-adv-x="970" d="M28 0 L28 224 L550 775 L299 775 L299 658 L75 658 L75 999 L884 999 L884 802 L345 224 L678 224 L678 378 L902 378 L902 0 L28 0 Z M494 1290 L647 1487 L819 1487 L610 1137 L379 1137 L169 1487 L340 1487 L494 1290 Z " />
<glyph glyph-name="uni018F" unicode="&#x18f;" horiz-adv-x="1669" d="M86 867 L1295 867 Q1267 990 1203 1074 Q1058 1264 789 1264 Q621 1264 484 1188 Q428 1158 341 1081 L181 1269 Q288 1377 403 1429 Q572 1505 785 1505 Q1200 1505 1423 1223 Q1583 1020 1583 736 Q1583 456 1431 251 Q1221 -31 839 -31 Q456 -31 242 251 Q94 445 87 738 Q86 765 86 867 Z M371 655 Q392 489 462 392 Q596 204 841 204 Q1101 204 1228 423 Q1284 519 1302 655 L371 655 Z " />
<glyph glyph-name="uni01CD" unicode="&#x1cd;" horiz-adv-x="1470" d="M1020 421 L448 421 L374 224 L516 224 L516 0 L-12 0 L-12 224 L102 224 L594 1475 L873 1475 L1366 224 L1481 224 L1481 0 L952 0 L952 224 L1094 224 L1020 421 Z M938 638 L733 1206 L529 638 L938 638 Z M734 1759 L884 1948 L1056 1948 L850 1606 L619 1606 L413 1948 L583 1948 L734 1759 Z " />
<glyph glyph-name="uni01CE" unicode="&#x1ce;" horiz-adv-x="1197" d="M742 605 L742 649 Q742 739 716 769 Q673 816 543 816 Q448 816 414 782 Q391 759 384 697 L143 697 Q148 860 228 936 Q320 1026 550 1026 Q842 1026 942 895 Q988 834 1002 731 Q1008 684 1008 594 L1008 224 L1146 224 L1146 0 L774 0 L774 97 Q648 -29 437 -29 Q271 -29 172 43 Q63 122 63 295 Q63 475 192 558 Q282 616 494 616 Q607 616 742 605 Z M749 413 Q628 423 516 423 Q402 423 365 396 Q323 365 323 303 Q323 240 364 214 Q402 189 492 189 Q640 189 710 250 Q738 275 745 305 Q749 320 749 358 L749 413 Z M598 1290 L751 1487 L923 1487 L714 1137 L483 1137 L273 1487 L444 1487 L598 1290 Z " />
<glyph glyph-name="uni01D3" unicode="&#x1d3;" horiz-adv-x="1453" d="M59 1251 L59 1475 L627 1475 L627 1251 L470 1251 L470 586 Q470 452 487 386 Q532 211 727 211 Q882 211 940 317 Q967 367 977 438 Q984 487 984 586 L984 1251 L827 1251 L827 1475 L1395 1475 L1395 1251 L1254 1251 L1254 628 Q1254 417 1231 313 Q1194 147 1068 59 Q937 -31 727 -31 Q412 -31 284 165 Q224 259 207 411 Q200 479 200 628 L200 1251 L59 1251 Z M731 1759 L881 1948 L1053 1948 L847 1606 L616 1606 L410 1948 L580 1948 L731 1759 Z " />
<glyph glyph-name="uni01D4" unicode="&#x1d4;" horiz-adv-x="1247" d="M189 775 L52 775 L52 999 L449 999 L449 410 Q449 323 461 283 Q480 216 548 216 Q618 216 698 268 Q733 291 794 348 L794 775 L665 775 L665 999 L1052 999 L1052 224 L1193 224 L1193 0 L794 0 L794 114 Q707 51 668 31 Q577 -16 475 -16 Q301 -16 237 113 Q189 210 189 423 L189 775 Z M623 1290 L776 1487 L948 1487 L739 1137 L508 1137 L298 1487 L469 1487 L623 1290 Z " />
<glyph glyph-name="uni01DD" unicode="&#x1dd;" horiz-adv-x="1206" d="M71 597 L864 597 Q813 804 591 804 Q469 804 353 762 Q299 742 208 693 L89 887 Q332 1028 585 1028 Q839 1028 986 888 Q1139 742 1139 500 Q1139 257 986 111 Q839 -29 602 -29 Q366 -29 219 111 Q66 257 66 489 Q66 530 71 597 Z M339 420 Q357 336 395 290 Q474 195 602 195 Q752 195 827 312 Q853 353 867 420 L339 420 Z " />
<glyph glyph-name="Gcaron" unicode="&#x1e6;" horiz-adv-x="1644" d="M828 529 L828 753 L1496 753 L1496 63 Q1226 -31 867 -31 Q650 -31 512 23 Q298 107 187 295 Q81 474 81 730 Q81 1104 322 1323 Q521 1505 842 1505 Q1006 1505 1134 1457 Q1175 1442 1232 1413 L1232 1475 L1449 1475 L1449 1021 L1215 1021 L1215 1039 Q1215 1119 1156 1175 Q1055 1271 863 1271 Q619 1271 486 1120 Q355 972 355 734 Q355 472 502 330 Q631 204 875 204 Q1062 204 1251 252 L1251 529 L828 529 Z M847 1759 L997 1948 L1169 1948 L963 1606 L732 1606 L526 1948 L696 1948 L847 1759 Z " />
<glyph glyph-name="gcaron" unicode="&#x1e7;" horiz-adv-x="1275" d="M825 107 Q783 72 754 54 Q658 -3 529 -3 Q326 -3 198 131 Q67 269 67 503 Q67 737 192 881 Q321 1028 534 1028 Q677 1028 777 957 Q806 936 850 892 L850 999 L1226 999 L1226 775 L1085 775 L1085 98 Q1085 -72 1060 -163 Q1021 -307 899 -380 Q781 -450 576 -450 Q329 -450 228 -356 Q149 -283 144 -116 L385 -116 Q394 -176 423 -200 Q465 -236 578 -236 Q693 -236 749 -189 Q802 -145 817 -60 Q825 -16 825 70 L825 107 Z M572 804 Q460 804 394 720 Q331 639 331 504 Q331 376 391 303 Q458 221 572 221 Q689 221 760 302 Q825 377 825 499 Q825 634 760 715 Q689 804 572 804 Z M665 1290 L818 1487 L990 1487 L781 1137 L550 1137 L340 1487 L511 1487 L665 1290 Z " />
<glyph glyph-name="uni01F4" unicode="&#x1f4;" horiz-adv-x="1644" d="M828 529 L828 753 L1496 753 L1496 63 Q1226 -31 867 -31 Q650 -31 512 23 Q298 107 187 295 Q81 474 81 730 Q81 1104 322 1323 Q521 1505 842 1505 Q1006 1505 1134 1457 Q1175 1442 1232 1413 L1232 1475 L1449 1475 L1449 1021 L1215 1021 L1215 1039 Q1215 1119 1156 1175 Q1055 1271 863 1271 Q619 1271 486 1120 Q355 972 355 734 Q355 472 502 330 Q631 204 875 204 Q1062 204 1251 252 L1251 529 L828 529 Z M706 1606 L898 1948 L1164 1948 L879 1606 L706 1606 Z " />
<glyph glyph-name="uni01F5" unicode="&#x1f5;" horiz-adv-x="1275" d="M825 107 Q783 72 754 54 Q658 -3 529 -3 Q326 -3 198 131 Q67 269 67 503 Q67 737 192 881 Q321 1028 534 1028 Q677 1028 777 957 Q806 936 850 892 L850 999 L1226 999 L1226 775 L1085 775 L1085 98 Q1085 -72 1060 -163 Q1021 -307 899 -380 Q781 -450 576 -450 Q329 -450 228 -356 Q149 -283 144 -116 L385 -116 Q394 -176 423 -200 Q465 -236 578 -236 Q693 -236 749 -189 Q802 -145 817 -60 Q825 -16 825 70 L825 107 Z M572 804 Q460 804 394 720 Q331 639 331 504 Q331 376 391 303 Q458 221 572 221 Q689 221 760 302 Q825 377 825 499 Q825 634 760 715 Q689 804 572 804 Z M482 1137 L681 1487 L947 1487 L655 1137 L482 1137 Z " />
<glyph glyph-name="Scommaaccent" unicode="&#x218;" horiz-adv-x="1248" d="M109 0 L109 474 L343 474 L343 441 Q343 349 406 288 Q492 204 650 204 Q777 204 845 261 Q913 319 913 411 Q913 509 821 568 Q763 605 539 669 Q381 714 318 745 Q115 844 115 1078 Q115 1283 243 1397 Q365 1506 564 1506 Q699 1506 794 1457 Q821 1442 863 1413 L863 1475 L1080 1475 L1080 1021 L846 1021 L846 1039 Q846 1124 801 1183 Q734 1271 585 1271 Q495 1271 439 1229 Q379 1185 379 1104 Q379 1017 459 969 Q514 935 702 887 Q872 844 948 804 Q1177 685 1177 427 Q1177 221 1052 101 Q914 -31 666 -31 Q487 -31 326 62 L326 0 L109 0 Z M375 -491 L527 -141 L793 -141 L548 -491 L375 -491 Z " />
<glyph glyph-name="scommaaccent" unicode="&#x219;" horiz-adv-x="1027" d="M83 0 L83 354 L300 354 L300 319 Q300 272 318 248 Q372 177 546 177 Q635 177 678 208 Q719 237 719 285 Q719 327 671 352 Q645 366 475 396 Q256 435 169 502 Q78 573 78 710 Q78 856 179 944 Q275 1028 444 1028 Q549 1028 624 996 Q653 983 701 953 L701 999 L895 999 L895 679 L678 679 L678 692 Q678 747 633 779 Q574 822 477 822 Q333 822 333 730 Q333 685 395 659 Q425 647 571 617 Q793 572 863 520 Q965 443 965 293 Q965 142 858 54 Q756 -29 564 -29 Q408 -29 277 46 L277 0 L83 0 Z M250 -491 L402 -141 L668 -141 L423 -491 L250 -491 Z " />
<glyph glyph-name="uni021A" unicode="&#x21a;" horiz-adv-x="1290" d="M510 224 L510 1251 L274 1251 L274 1062 L40 1062 L40 1475 L1249 1475 L1249 1062 L1015 1062 L1015 1251 L780 1251 L780 224 L993 224 L993 0 L298 0 L298 224 L510 224 Z M389 -491 L541 -141 L807 -141 L562 -491 L389 -491 Z " />
<glyph glyph-name="uni021B" unicode="&#x21b;" horiz-adv-x="754" d="M196 775 L48 775 L48 999 L196 999 L196 1325 L456 1325 L456 999 L697 999 L697 775 L456 775 L456 393 Q456 292 477 260 Q500 224 569 224 L700 224 L700 0 L567 0 Q398 0 309 63 Q196 143 196 344 L196 775 Z M146 -491 L298 -141 L564 -141 L319 -491 L146 -491 Z " />
<glyph glyph-name="uni0226" unicode="&#x226;" horiz-adv-x="1470" d="M1020 421 L448 421 L374 224 L516 224 L516 0 L-12 0 L-12 224 L102 224 L594 1475 L873 1475 L1366 224 L1481 224 L1481 0 L952 0 L952 224 L1094 224 L1020 421 Z M938 638 L733 1206 L529 638 L938 638 Z M601 1615 L601 1892 L868 1892 L868 1615 L601 1615 Z " />
<glyph glyph-name="uni0227" unicode="&#x227;" horiz-adv-x="1197" d="M742 605 L742 649 Q742 739 716 769 Q673 816 543 816 Q448 816 414 782 Q391 759 384 697 L143 697 Q148 860 228 936 Q320 1026 550 1026 Q842 1026 942 895 Q988 834 1002 731 Q1008 684 1008 594 L1008 224 L1146 224 L1146 0 L774 0 L774 97 Q648 -29 437 -29 Q271 -29 172 43 Q63 122 63 295 Q63 475 192 558 Q282 616 494 616 Q607 616 742 605 Z M749 413 Q628 423 516 423 Q402 423 365 396 Q323 365 323 303 Q323 240 364 214 Q402 189 492 189 Q640 189 710 250 Q738 275 745 305 Q749 320 749 358 L749 413 Z M466 1146 L466 1423 L733 1423 L733 1146 L466 1146 Z " />
<glyph glyph-name="uni0237" unicode="&#x237;" horiz-adv-x="643" d="M81 775 L81 999 L480 999 L480 19 Q480 -145 451 -223 Q396 -372 217 -408 Q169 -417 61 -422 L61 -198 Q148 -194 177 -166 Q220 -128 220 -11 L220 775 L81 775 Z " />
<glyph glyph-name="uni0259" unicode="&#x259;" horiz-adv-x="1206" d="M71 597 L864 597 Q813 804 591 804 Q469 804 353 762 Q299 742 208 693 L89 887 Q332 1028 585 1028 Q839 1028 986 888 Q1139 742 1139 500 Q1139 257 986 111 Q839 -29 602 -29 Q366 -29 219 111 Q66 257 66 489 Q66 530 71 597 Z M339 420 Q357 336 395 290 Q474 195 602 195 Q752 195 827 312 Q853 353 867 420 L339 420 Z " />
<glyph glyph-name="uni02C9" unicode="&#x2c9;" horiz-adv-x="1024" d="M225 1198 L225 1375 L799 1375 L799 1198 L225 1198 Z " />
<glyph glyph-name="uni0312" unicode="&#x312;" horiz-adv-x="1024" d="M799 1487 L600 1137 L334 1137 L625 1487 L799 1487 Z " />
<glyph glyph-name="uni0313" unicode="&#x313;" horiz-adv-x="325" d="M-41 958 L85 1475 L366 1475 L153 958 L-41 958 Z " />
<glyph glyph-name="uni031B" unicode="&#x31b;" horiz-adv-x="325" d="M-41 958 L85 1475 L366 1475 L153 958 L-41 958 Z " />
<glyph glyph-name="commaaccent" unicode="&#x326;" horiz-adv-x="1024" d="M281 -491 L433 -141 L699 -141 L454 -491 L281 -491 Z " />
<glyph glyph-name="uni037E" unicode="&#x37e;" horiz-adv-x="573" d="M163 644 L163 941 L440 941 L440 644 L163 644 Z M-23 -293 L164 297 L450 297 L226 -293 L-23 -293 Z " />
<glyph glyph-name="uni0387" unicode="&#x387;" horiz-adv-x="574" d="M148 422 L148 719 L425 719 L425 422 L148 422 Z " />
<glyph glyph-name="uni0400" unicode="&#x400;" horiz-adv-x="1280" d="M216 224 L216 1251 L75 1251 L75 1475 L1202 1475 L1202 1086 L968 1086 L968 1251 L486 1251 L486 883 L952 883 L952 659 L486 659 L486 224 L971 224 L971 437 L1205 437 L1205 0 L75 0 L75 224 L216 224 Z M647 1606 L349 1948 L652 1948 L840 1606 L647 1606 Z " />
<glyph glyph-name="afii10023" unicode="&#x401;" horiz-adv-x="1280" d="M216 224 L216 1251 L75 1251 L75 1475 L1202 1475 L1202 1086 L968 1086 L968 1251 L486 1251 L486 883 L952 883 L952 659 L486 659 L486 224 L971 224 L971 437 L1205 437 L1205 0 L75 0 L75 224 L216 224 Z M345 1630 L345 1877 L574 1877 L574 1630 L345 1630 Z M736 1630 L736 1877 L965 1877 L965 1630 L736 1630 Z " />
<glyph glyph-name="afii10051" unicode="&#x402;" horiz-adv-x="1590" d="M485 224 L485 1251 L270 1251 L270 1062 L36 1062 L36 1475 L1244 1475 L1244 1095 L1010 1095 L1010 1251 L755 1251 L755 876 Q835 930 877 950 Q985 1004 1107 1004 Q1308 1004 1385 872 Q1443 774 1443 553 L1443 -4 Q1443 -169 1414 -246 Q1359 -395 1180 -431 Q1132 -440 1024 -445 L1024 -221 Q1110 -217 1140 -190 Q1183 -151 1183 -34 L1183 566 Q1183 657 1164 702 Q1133 772 1035 772 Q951 772 856 710 Q819 687 755 635 L755 224 L967 224 L967 0 L272 0 L272 224 L485 224 Z " />
<glyph glyph-name="afii10052" unicode="&#x403;" horiz-adv-x="1175" d="M216 224 L216 1251 L75 1251 L75 1475 L1141 1475 L1141 1062 L907 1062 L907 1251 L486 1251 L486 224 L686 224 L686 0 L75 0 L75 224 L216 224 Z M469 1606 L660 1948 L963 1948 L662 1606 L469 1606 Z " />
<glyph glyph-name="afii10053" unicode="&#x404;" horiz-adv-x="1423" d="M915 878 L915 666 L355 666 Q406 211 763 211 Q919 211 1047 287 Q1099 317 1181 394 L1340 206 Q1240 99 1129 46 Q966 -31 755 -31 Q413 -31 239 191 Q76 399 76 746 Q76 1092 258 1301 Q437 1506 735 1506 Q919 1506 1079 1413 L1079 1475 L1296 1475 L1296 1021 L1062 1021 L1062 1039 Q1062 1119 1006 1178 Q916 1271 753 1271 Q536 1271 428 1084 Q379 1001 360 878 L915 878 Z " />
<glyph glyph-name="afii10054" unicode="&#x405;" horiz-adv-x="1260" d="M115 0 L115 474 L349 474 L349 441 Q349 349 412 288 Q498 204 656 204 Q783 204 851 261 Q919 318 919 411 Q919 509 827 568 Q769 605 545 669 Q387 714 324 745 Q121 844 121 1078 Q121 1283 249 1397 Q371 1506 570 1506 Q704 1506 800 1457 Q828 1442 869 1413 L869 1475 L1086 1475 L1086 1021 L852 1021 L852 1039 Q852 1124 807 1183 Q740 1271 591 1271 Q501 1271 445 1229 Q385 1185 385 1104 Q385 1017 465 969 Q520 935 708 887 Q878 844 954 804 Q1183 685 1183 427 Q1183 221 1058 101 Q920 -31 672 -31 Q493 -31 332 62 L332 0 L115 0 Z " />
<glyph glyph-name="afii10055" unicode="&#x406;" horiz-adv-x="703" d="M217 224 L217 1251 L76 1251 L76 1475 L628 1475 L628 1251 L487 1251 L487 224 L628 224 L628 0 L76 0 L76 224 L217 224 Z " />
<glyph glyph-name="afii10056" unicode="&#x407;" horiz-adv-x="703" d="M217 224 L217 1251 L76 1251 L76 1475 L628 1475 L628 1251 L487 1251 L487 224 L628 224 L628 0 L76 0 L76 224 L217 224 Z M42 1630 L42 1877 L271 1877 L271 1630 L42 1630 Z M433 1630 L433 1877 L662 1877 L662 1630 L433 1630 Z " />
<glyph glyph-name="afii10057" unicode="&#x408;" horiz-adv-x="702" d="M221 1251 L67 1251 L67 1475 L632 1475 L632 1251 L491 1251 L491 188 Q491 -13 460 -108 Q401 -290 208 -334 Q150 -347 29 -351 L29 -127 Q88 -124 118 -115 Q181 -96 203 -22 Q221 37 221 144 L221 1251 Z " />
<glyph glyph-name="afii10058" unicode="&#x409;" horiz-adv-x="2033" d="M913 224 L913 1251 L497 1251 L497 1200 Q497 873 467 544 Q446 313 403 196 Q362 85 282 40 Q211 0 81 0 L-37 0 L-22 225 L32 225 Q92 225 120 251 Q161 290 182 401 Q208 547 222 802 Q234 1030 234 1211 L234 1251 L93 1251 L93 1476 L1337 1475 L1337 1251 L1173 1251 L1173 897 L1427 897 Q1656 897 1788 812 Q1968 696 1968 449 Q1968 201 1788 85 Q1656 0 1427 0 L772 0 L772 224 L913 224 Z M1173 224 L1368 224 Q1529 224 1599 267 Q1694 324 1694 454 Q1694 593 1583 649 Q1516 683 1368 683 L1173 683 L1173 224 Z " />
<glyph glyph-name="afii10059" unicode="&#x40a;" horiz-adv-x="2136" d="M216 224 L216 1251 L75 1251 L75 1475 L642 1475 L642 1251 L486 1251 L486 885 L1012 885 L1012 1251 L871 1251 L871 1475 L1436 1475 L1436 1251 L1272 1251 L1272 889 L1530 889 Q1759 889 1891 804 Q2071 690 2071 444 Q2071 199 1891 84 Q1759 0 1530 0 L871 0 L871 224 L1012 224 L1012 661 L486 661 L486 224 L642 224 L642 0 L75 0 L75 224 L216 224 Z M1272 224 L1471 224 Q1631 224 1702 266 Q1797 322 1797 449 Q1797 586 1686 641 Q1617 675 1471 675 L1272 675 L1272 224 Z " />
<glyph glyph-name="afii10060" unicode="&#x40b;" horiz-adv-x="1625" d="M485 224 L485 1251 L270 1251 L270 1062 L36 1062 L36 1475 L1244 1475 L1244 1095 L1010 1095 L1010 1251 L755 1251 L755 876 Q835 929 877 950 Q986 1004 1107 1004 Q1308 1004 1385 872 Q1443 774 1443 553 L1443 224 L1584 224 L1584 0 L1061 0 L1061 224 L1183 224 L1183 566 Q1183 658 1164 702 Q1132 772 1036 772 Q952 772 856 710 Q819 686 755 635 L755 224 L884 224 L884 0 L272 0 L272 224 L485 224 Z " />
<glyph glyph-name="afii10061" unicode="&#x40c;" horiz-adv-x="1385" d="M216 224 L216 1251 L75 1251 L75 1475 L642 1475 L642 1251 L486 1251 L486 871 L677 871 L924 1251 L802 1251 L802 1475 L1334 1475 L1334 1251 L1208 1251 L901 787 Q967 738 1009 673 Q1045 617 1105 489 L1235 224 L1375 224 L1375 0 L1018 0 L846 401 Q782 551 728 603 Q670 659 567 659 L486 659 L486 224 L642 224 L642 0 L75 0 L75 224 L216 224 Z M560 1606 L752 1948 L1055 1948 L754 1606 L560 1606 Z " />
<glyph glyph-name="uni040D" unicode="&#x40d;" horiz-adv-x="1507" d="M216 224 L216 1251 L75 1251 L75 1475 L642 1475 L642 1251 L486 1251 L486 574 L1021 1233 L1021 1251 L863 1251 L863 1475 L1432 1475 L1432 1251 L1291 1251 L1291 224 L1432 224 L1432 0 L863 0 L863 224 L1021 224 L1021 900 L486 242 L486 224 L642 224 L642 0 L75 0 L75 224 L216 224 Z M714 1606 L417 1948 L720 1948 L907 1606 L714 1606 Z " />
<glyph glyph-name="afii10062" unicode="&#x40e;" horiz-adv-x="1278" d="M543 463 L147 1251 L6 1251 L6 1475 L539 1475 L539 1251 L437 1251 L671 744 L903 1251 L801 1251 L801 1475 L1304 1475 L1304 1251 L1186 1251 L607 0 L267 0 L267 224 L434 224 L543 463 Z M294 1939 L456 1939 Q461 1870 480 1845 Q514 1799 666 1799 Q826 1799 857 1854 Q872 1879 875 1939 L1038 1939 Q1037 1786 1010 1729 Q951 1606 666 1606 Q496 1606 404 1650 Q327 1686 305 1777 Q294 1823 294 1939 Z " />
<glyph glyph-name="afii10145" unicode="&#x40f;" horiz-adv-x="1463" d="M216 224 L216 1251 L75 1251 L75 1475 L625 1475 L625 1251 L486 1251 L486 224 L977 224 L977 1251 L838 1251 L838 1475 L1388 1475 L1388 1251 L1247 1251 L1247 224 L1388 224 L1388 0 L867 0 L844 -360 L619 -360 L596 0 L75 0 L75 224 L216 224 Z " />
<glyph glyph-name="afii10017" unicode="&#x410;" horiz-adv-x="1482" d="M1026 421 L454 421 L380 224 L522 224 L522 0 L-6 0 L-6 224 L108 224 L600 1475 L879 1475 L1372 224 L1487 224 L1487 0 L958 0 L958 224 L1100 224 L1026 421 Z M944 638 L739 1206 L535 638 L944 638 Z " />
<glyph glyph-name="afii10018" unicode="&#x411;" horiz-adv-x="1345" d="M216 224 L216 1251 L75 1251 L75 1475 L1169 1475 L1169 1062 L935 1062 L935 1251 L476 1251 L476 897 L731 897 Q959 897 1091 812 Q1271 696 1271 449 Q1271 201 1091 85 Q959 0 731 0 L75 0 L75 224 L216 224 Z M476 224 L672 224 Q832 224 902 267 Q997 324 997 454 Q997 593 886 649 Q819 683 672 683 L476 683 L476 224 Z " />
<glyph glyph-name="afii10019" unicode="&#x412;" horiz-adv-x="1345" d="M216 224 L216 1251 L75 1251 L75 1475 L715 1475 Q1203 1475 1203 1107 Q1203 895 1020 795 Q1125 761 1188 687 Q1271 590 1271 441 Q1271 199 1078 85 Q933 0 690 0 L75 0 L75 224 L216 224 Z M476 893 L667 893 Q801 893 861 928 Q939 973 939 1071 Q939 1172 854 1219 Q796 1251 693 1251 L476 1251 L476 893 Z M476 224 L630 224 Q810 224 889 266 Q997 323 997 450 Q997 580 888 638 Q812 679 681 679 L476 679 L476 224 Z " />
<glyph glyph-name="afii10020" unicode="&#x413;" horiz-adv-x="1175" d="M216 224 L216 1251 L75 1251 L75 1475 L1141 1475 L1141 1062 L907 1062 L907 1251 L486 1251 L486 224 L686 224 L686 0 L75 0 L75 224 L216 224 Z " />
<glyph glyph-name="afii10021" unicode="&#x414;" horiz-adv-x="1420" d="M1122 0 L243 0 L220 -360 L-7 -360 L-7 224 L134 224 Q189 334 220 567 Q257 846 257 1214 L257 1251 L116 1251 L116 1475 L1345 1475 L1345 1251 L1204 1251 L1204 224 L1372 224 L1372 -360 L1145 -360 L1122 0 Z M934 224 L934 1251 L510 1251 L510 1180 Q510 1034 498 800 Q484 548 451 386 Q436 315 410 224 L934 224 Z " />
<glyph glyph-name="afii10022" unicode="&#x415;" horiz-adv-x="1280" d="M216 224 L216 1251 L75 1251 L75 1475 L1202 1475 L1202 1086 L968 1086 L968 1251 L486 1251 L486 883 L952 883 L952 659 L486 659 L486 224 L971 224 L971 437 L1205 437 L1205 0 L75 0 L75 224 L216 224 Z " />
<glyph glyph-name="afii10024" unicode="&#x416;" horiz-adv-x="1957" d="M851 224 L851 659 L813 659 Q712 659 650 595 Q593 537 525 382 L356 0 L11 0 L11 224 L152 224 L286 489 Q357 630 393 685 Q433 746 492 787 L179 1251 L69 1251 L69 1475 L571 1475 L571 1268 L453 1268 L717 871 L851 871 L851 1268 L748 1268 L748 1475 L1208 1475 L1208 1268 L1106 1268 L1106 871 L1239 871 L1504 1268 L1385 1268 L1385 1475 L1888 1475 L1888 1251 L1778 1251 L1464 787 Q1523 746 1563 685 Q1602 626 1671 489 L1805 224 L1945 224 L1945 0 L1600 0 L1431 382 Q1356 554 1289 611 Q1234 659 1144 659 L1106 659 L1106 224 L1261 224 L1261 0 L695 0 L695 224 L851 224 Z " />
<glyph glyph-name="afii10025" unicode="&#x417;" horiz-adv-x="1299" d="M104 0 L104 460 L338 460 L338 431 Q338 338 397 281 Q490 194 661 194 Q811 194 885 259 Q958 322 958 437 Q958 576 851 628 Q778 664 614 664 L375 664 L375 876 L578 876 Q736 876 811 923 Q902 981 902 1097 Q902 1281 658 1281 Q512 1281 423 1192 Q366 1134 366 1053 L366 1035 L132 1035 L132 1475 L349 1475 L349 1413 Q405 1443 446 1459 Q566 1506 713 1506 Q930 1506 1055 1407 Q1175 1311 1175 1121 Q1175 986 1115 899 Q1083 852 1018 809 Q1094 775 1138 726 Q1231 624 1231 440 Q1231 198 1072 75 Q934 -31 700 -31 Q479 -31 321 62 L321 0 L104 0 Z " />
<glyph glyph-name="afii10026" unicode="&#x418;" horiz-adv-x="1507" d="M216 224 L216 1251 L75 1251 L75 1475 L642 1475 L642 1251 L486 1251 L486 574 L1021 1233 L1021 1251 L863 1251 L863 1475 L1432 1475 L1432 1251 L1291 1251 L1291 224 L1432 224 L1432 0 L863 0 L863 224 L1021 224 L1021 900 L486 242 L486 224 L642 224 L642 0 L75 0 L75 224 L216 224 Z " />
<glyph glyph-name="afii10027" unicode="&#x419;" horiz-adv-x="1507" d="M216 224 L216 1251 L75 1251 L75 1475 L642 1475 L642 1251 L486 1251 L486 574 L1021 1233 L1021 1251 L863 1251 L863 1475 L1432 1475 L1432 1251 L1291 1251 L1291 224 L1432 224 L1432 0 L863 0 L863 224 L1021 224 L1021 900 L486 242 L486 224 L642 224 L642 0 L75 0 L75 224 L216 224 Z M381 1939 L544 1939 Q548 1870 567 1845 Q602 1799 753 1799 Q913 1799 945 1854 Q959 1879 963 1939 L1125 1939 Q1124 1785 1097 1728 Q1039 1606 753 1606 Q583 1606 492 1650 Q414 1686 393 1777 Q382 1821 381 1939 Z " />
<glyph glyph-name="afii10028" unicode="&#x41a;" horiz-adv-x="1385" d="M216 224 L216 1251 L75 1251 L75 1475 L642 1475 L642 1251 L486 1251 L486 871 L677 871 L924 1251 L802 1251 L802 1475 L1334 1475 L1334 1251 L1208 1251 L901 787 Q967 738 1009 673 Q1045 617 1105 489 L1235 224 L1375 224 L1375 0 L1018 0 L846 401 Q782 551 728 603 Q670 659 567 659 L486 659 L486 224 L642 224 L642 0 L75 0 L75 224 L216 224 Z " />
<glyph glyph-name="afii10029" unicode="&#x41b;" horiz-adv-x="1399" d="M94 1251 L94 1475 L1325 1475 L1325 1251 L1184 1251 L1184 224 L1325 224 L1325 0 L757 0 L757 224 L914 224 L914 1251 L499 1251 L499 1200 Q499 873 468 544 Q447 312 404 195 Q363 85 283 40 Q213 0 82 0 L-21 0 L-21 224 L33 224 Q93 224 121 250 Q163 290 183 401 Q209 549 223 802 Q235 1032 235 1211 L235 1251 L94 1251 Z " />
<glyph glyph-name="afii10030" unicode="&#x41c;" horiz-adv-x="1844" d="M174 224 L256 1251 L113 1251 L113 1475 L631 1475 L862 668 Q881 603 923 402 Q961 591 983 667 L1214 1475 L1731 1475 L1731 1251 L1589 1251 L1670 224 L1779 224 L1779 0 L1280 0 L1280 224 L1410 224 L1366 920 Q1362 994 1357 1191 Q1315 1020 1287 923 L1025 0 L820 0 L555 933 Q534 1009 488 1191 Q483 993 479 931 L434 224 L565 224 L565 0 L65 0 L65 224 L174 224 Z " />
<glyph glyph-name="afii10031" unicode="&#x41d;" horiz-adv-x="1507" d="M216 224 L216 1251 L75 1251 L75 1475 L642 1475 L642 1251 L486 1251 L486 885 L1021 885 L1021 1251 L863 1251 L863 1475 L1432 1475 L1432 1251 L1291 1251 L1291 224 L1432 224 L1432 0 L863 0 L863 224 L1021 224 L1021 661 L486 661 L486 224 L642 224 L642 0 L75 0 L75 224 L216 224 Z " />
<glyph glyph-name="afii10032" unicode="&#x41e;" horiz-adv-x="1728" d="M864 1506 Q1115 1506 1314 1372 Q1503 1245 1586 1033 Q1641 894 1641 738 Q1641 459 1478 254 Q1361 107 1183 32 Q1035 -31 866 -31 Q612 -31 414 103 Q225 230 142 443 Q87 582 87 747 Q87 923 163 1083 Q262 1293 478 1411 Q652 1506 864 1506 Z M864 1271 Q639 1271 495 1112 Q361 965 361 745 Q361 512 495 363 Q638 204 865 204 Q1090 204 1233 363 Q1367 512 1367 738 Q1367 965 1233 1112 Q1088 1271 864 1271 Z " />
<glyph glyph-name="afii10033" unicode="&#x41f;" horiz-adv-x="1468" d="M216 224 L216 1251 L75 1251 L75 1475 L1393 1475 L1393 1251 L1252 1251 L1252 224 L1393 224 L1393 0 L840 0 L840 224 L982 224 L982 1251 L486 1251 L486 224 L627 224 L627 0 L75 0 L75 224 L216 224 Z " />
<glyph glyph-name="afii10034" unicode="&#x420;" horiz-adv-x="1289" d="M216 224 L216 1251 L75 1251 L75 1475 L614 1475 Q793 1475 895 1451 Q1057 1412 1148 1281 Q1228 1165 1228 1002 Q1228 540 615 540 L486 540 L486 224 L673 224 L673 0 L75 0 L75 224 L216 224 Z M486 757 L599 757 Q954 757 954 1009 Q954 1251 611 1251 L486 1251 L486 757 Z " />
<glyph glyph-name="afii10035" unicode="&#x421;" horiz-adv-x="1469" d="M1227 394 L1386 206 Q1286 99 1175 46 Q1012 -31 797 -31 Q442 -31 259 183 Q87 384 87 724 Q87 1078 278 1294 Q465 1506 776 1506 Q962 1506 1125 1413 L1125 1475 L1342 1475 L1342 1021 L1108 1021 L1108 1039 Q1108 1119 1051 1178 Q961 1271 793 1271 Q586 1271 471 1115 Q361 967 361 730 Q361 491 482 345 Q592 211 805 211 Q964 211 1093 287 Q1145 317 1227 394 Z " />
<glyph glyph-name="afii10036" unicode="&#x422;" horiz-adv-x="1302" d="M516 224 L516 1251 L280 1251 L280 1062 L46 1062 L46 1475 L1255 1475 L1255 1062 L1021 1062 L1021 1251 L786 1251 L786 224 L999 224 L999 0 L304 0 L304 224 L516 224 Z " />
<glyph glyph-name="afii10037" unicode="&#x423;" horiz-adv-x="1300" d="M543 463 L147 1251 L6 1251 L6 1475 L539 1475 L539 1251 L437 1251 L671 744 L903 1251 L801 1251 L801 1475 L1304 1475 L1304 1251 L1186 1251 L607 0 L267 0 L267 224 L434 224 L543 463 Z " />
<glyph glyph-name="afii10038" unicode="&#x424;" horiz-adv-x="1806" d="M778 86 L778 171 Q519 190 369 262 Q72 405 72 738 Q72 1096 415 1234 Q547 1287 778 1304 L778 1389 L638 1389 L638 1580 L1163 1580 L1163 1389 L1022 1389 L1022 1304 Q1297 1282 1438 1213 Q1735 1069 1735 738 Q1735 379 1392 242 Q1262 190 1022 171 L1022 86 L1163 86 L1163 -105 L638 -105 L638 86 L778 86 Z M778 382 L778 1093 Q346 1068 346 738 Q346 408 778 382 Z M1022 382 Q1196 392 1293 443 Q1461 532 1461 738 Q1461 961 1265 1046 Q1178 1083 1022 1093 L1022 382 Z " />
<glyph glyph-name="afii10039" unicode="&#x425;" horiz-adv-x="1362" d="M163 224 L521 752 L184 1251 L51 1251 L51 1475 L613 1475 L613 1251 L494 1251 L694 932 L881 1251 L769 1251 L769 1475 L1311 1475 L1311 1251 L1176 1251 L834 748 L1187 224 L1326 224 L1326 0 L757 0 L757 224 L878 224 L664 573 L456 224 L571 224 L571 0 L16 0 L16 224 L163 224 Z " />
<glyph glyph-name="afii10040" unicode="&#x426;" horiz-adv-x="1463" d="M216 224 L216 1251 L75 1251 L75 1475 L625 1475 L625 1251 L486 1251 L486 224 L977 224 L977 1251 L837 1251 L837 1475 L1388 1475 L1388 1251 L1247 1251 L1247 224 L1415 224 L1415 -360 L1188 -360 L1165 0 L75 0 L75 224 L216 224 Z " />
<glyph glyph-name="afii10041" unicode="&#x427;" horiz-adv-x="1421" d="M935 224 L935 578 Q873 541 837 522 Q708 453 548 453 Q305 453 219 608 Q164 707 164 907 L164 1251 L40 1251 L40 1475 L558 1475 L558 1251 L434 1251 L434 954 Q434 814 462 762 Q503 685 630 685 Q742 685 843 751 Q886 778 935 819 L935 1251 L810 1251 L810 1475 L1345 1475 L1345 1251 L1205 1251 L1205 224 L1345 224 L1345 0 L724 0 L724 224 L935 224 Z " />
<glyph glyph-name="afii10042" unicode="&#x428;" horiz-adv-x="2090" d="M216 224 L216 1251 L75 1251 L75 1475 L603 1475 L603 1251 L486 1251 L486 224 L910 224 L910 1251 L792 1251 L792 1475 L1298 1475 L1298 1251 L1180 1251 L1180 224 L1604 224 L1604 1251 L1487 1251 L1487 1475 L2015 1475 L2015 1251 L1874 1251 L1874 224 L2015 224 L2015 0 L75 0 L75 224 L216 224 Z " />
<glyph glyph-name="afii10043" unicode="&#x429;" horiz-adv-x="2090" d="M216 224 L216 1251 L75 1251 L75 1475 L603 1475 L603 1251 L486 1251 L486 224 L910 224 L910 1251 L792 1251 L792 1475 L1298 1475 L1298 1251 L1180 1251 L1180 224 L1604 224 L1604 1251 L1487 1251 L1487 1475 L2015 1475 L2015 1251 L1874 1251 L1874 224 L2042 224 L2042 -360 L1816 -360 L1792 0 L75 0 L75 224 L216 224 Z " />
<glyph glyph-name="afii10044" unicode="&#x42a;" horiz-adv-x="1736" d="M616 224 L616 1251 L298 1251 L298 1062 L64 1062 L64 1475 L1040 1475 L1040 1251 L876 1251 L876 897 L1131 897 Q1359 897 1491 812 Q1671 696 1671 449 Q1671 201 1491 85 Q1359 0 1131 0 L475 0 L475 224 L616 224 Z M876 224 L1072 224 Q1232 224 1302 267 Q1397 324 1397 454 Q1397 593 1286 649 Q1219 683 1072 683 L876 683 L876 224 Z " />
<glyph glyph-name="afii10045" unicode="&#x42b;" horiz-adv-x="1937" d="M216 224 L216 1251 L75 1251 L75 1475 L640 1475 L640 1251 L476 1251 L476 897 L731 897 Q959 897 1092 812 Q1272 696 1272 449 Q1272 201 1092 85 Q959 0 731 0 L75 0 L75 224 L216 224 Z M476 224 L672 224 Q832 224 903 267 Q998 324 998 454 Q998 593 887 649 Q820 683 672 683 L476 683 L476 224 Z M1450 224 L1450 1251 L1309 1251 L1309 1475 L1861 1475 L1861 1251 L1720 1251 L1720 224 L1861 224 L1861 0 L1309 0 L1309 224 L1450 224 Z " />
<glyph glyph-name="afii10046" unicode="&#x42c;" horiz-adv-x="1336" d="M216 224 L216 1251 L75 1251 L75 1475 L640 1475 L640 1251 L476 1251 L476 897 L731 897 Q959 897 1092 812 Q1272 696 1272 449 Q1272 201 1092 85 Q959 0 731 0 L75 0 L75 224 L216 224 Z M476 224 L672 224 Q832 224 903 267 Q998 324 998 454 Q998 593 887 649 Q820 683 672 683 L476 683 L476 224 Z " />
<glyph glyph-name="afii10047" unicode="&#x42d;" horiz-adv-x="1418" d="M101 0 L101 460 L335 460 L335 431 Q335 344 399 292 Q498 211 655 211 Q1011 211 1064 666 L471 666 L471 878 L1059 878 Q1040 999 991 1084 Q883 1271 666 1271 Q506 1271 417 1178 Q361 1119 361 1039 L361 1021 L127 1021 L127 1475 L345 1475 L345 1413 Q504 1506 685 1506 Q1005 1506 1186 1269 Q1342 1065 1342 746 Q1342 361 1146 152 Q975 -30 680 -30 Q475 -30 318 62 L318 0 L101 0 Z " />
<glyph glyph-name="afii10048" unicode="&#x42e;" horiz-adv-x="2353" d="M216 224 L216 1251 L75 1251 L75 1475 L642 1475 L642 1251 L486 1251 L486 885 L793 885 Q820 1036 883 1146 Q981 1318 1154 1414 Q1319 1506 1529 1506 Q1780 1506 1967 1376 Q2147 1249 2226 1034 Q2278 894 2278 738 Q2278 456 2124 252 Q2011 102 1839 29 Q1698 -31 1529 -31 Q1236 -31 1034 145 Q815 335 784 661 L486 661 L486 224 L642 224 L642 0 L75 0 L75 224 L216 224 Z M1530 1271 Q1309 1271 1178 1115 Q1055 968 1055 745 Q1055 510 1178 360 Q1307 204 1531 204 Q1752 204 1881 360 Q2004 511 2004 738 Q2004 967 1881 1115 Q1751 1271 1530 1271 Z " />
<glyph glyph-name="afii10049" unicode="&#x42f;" horiz-adv-x="1346" d="M860 588 L759 588 Q639 588 578 559 Q517 531 477 435 Q452 376 427 268 L365 0 L0 0 L0 224 L130 224 L201 455 Q234 562 265 609 Q295 652 351 682 Q237 747 199 791 Q112 891 112 1049 Q112 1203 189 1315 Q269 1430 407 1458 Q489 1475 640 1475 L1270 1475 L1270 1251 L1130 1251 L1130 224 L1270 224 L1270 0 L698 0 L698 224 L860 224 L860 588 Z M860 805 L860 1251 L676 1251 Q522 1251 460 1206 Q386 1151 386 1035 Q386 895 485 841 Q552 805 703 805 L860 805 Z " />
<glyph glyph-name="afii10065" unicode="&#x430;" horiz-adv-x="1172" d="M742 605 L742 649 Q742 739 716 769 Q673 816 543 816 Q448 816 414 782 Q391 759 384 697 L143 697 Q148 860 228 936 Q320 1026 550 1026 Q842 1026 942 895 Q988 834 1002 731 Q1008 684 1008 594 L1008 224 L1137 224 L1137 0 L774 0 L774 97 Q648 -29 437 -29 Q271 -29 172 43 Q63 122 63 295 Q63 475 192 558 Q282 616 494 616 Q608 616 742 605 Z M749 413 Q628 423 516 423 Q402 423 365 396 Q323 365 323 303 Q323 240 364 214 Q402 189 492 189 Q640 189 710 250 Q738 275 745 305 Q749 320 749 358 L749 413 Z " />
<glyph glyph-name="afii10066" unicode="&#x431;" horiz-adv-x="1190" d="M354 918 Q406 961 449 983 Q537 1028 653 1028 Q861 1028 988 890 Q1123 744 1123 502 Q1123 256 976 110 Q835 -29 607 -29 Q371 -29 234 111 Q133 215 106 358 Q88 456 88 577 Q88 1109 233 1278 Q317 1375 456 1408 Q532 1426 652 1439 Q759 1450 776 1475 Q784 1487 784 1510 L784 1516 L1009 1516 L1009 1483 Q1009 1342 958 1290 Q923 1253 849 1238 Q820 1232 683 1222 Q520 1210 464 1178 Q398 1139 371 1022 Q362 981 354 918 Z M612 804 Q490 804 417 715 Q352 636 352 504 Q352 364 417 284 Q489 195 612 195 Q730 195 797 283 Q859 364 859 500 Q859 637 797 716 Q729 804 612 804 Z " />
<glyph glyph-name="afii10067" unicode="&#x432;" horiz-adv-x="1257" d="M203 224 L203 775 L63 775 L63 999 L743 999 Q961 999 1049 946 Q1153 884 1153 740 Q1153 641 1095 579 Q1071 553 1024 527 Q1088 504 1124 470 Q1185 413 1185 297 Q1185 118 1045 47 Q952 0 740 0 L63 0 L63 224 L203 224 Z M463 605 L653 605 Q778 605 823 621 Q889 645 889 707 Q889 762 838 781 Q796 798 691 798 L463 798 L463 605 Z M463 204 L673 204 Q799 204 854 226 Q919 252 919 312 Q919 381 839 406 Q790 421 633 421 L463 421 L463 204 Z " />
<glyph glyph-name="afii10068" unicode="&#x433;" horiz-adv-x="985" d="M203 224 L203 775 L63 775 L63 999 L966 999 L966 635 L742 635 L742 775 L463 775 L463 224 L648 224 L648 0 L63 0 L63 224 L203 224 Z " />
<glyph glyph-name="afii10069" unicode="&#x434;" horiz-adv-x="1293" d="M1012 0 L255 0 L228 -324 L14 -324 L14 224 L135 224 Q218 306 252 412 Q299 556 299 752 L299 775 L159 775 L159 999 L1226 999 L1226 775 L1086 775 L1086 224 L1254 224 L1254 -324 L1039 -324 L1012 0 Z M826 224 L826 775 L545 775 L545 746 Q545 556 511 414 Q491 333 423 224 L826 224 Z " />
<glyph glyph-name="afii10070" unicode="&#x435;" horiz-adv-x="1164" d="M1100 413 L336 413 Q351 337 383 294 Q455 195 610 195 Q731 195 846 242 Q893 261 970 304 L1088 110 Q986 50 912 23 Q765 -31 607 -31 Q357 -31 212 111 Q63 257 63 500 Q63 745 211 891 Q351 1028 587 1028 Q803 1028 937 903 Q1057 792 1086 604 Q1098 529 1100 413 Z M824 612 Q783 813 583 813 Q389 813 339 612 L824 612 Z " />
<glyph glyph-name="afii10072" unicode="&#x436;" horiz-adv-x="1714" d="M735 224 L735 413 L708 413 Q616 413 565 361 Q532 328 509 284 Q505 277 458 178 L345 0 L33 0 L33 224 L173 224 L304 403 Q363 493 408 525 L183 775 L65 775 L65 999 L546 999 L546 792 L454 792 L605 600 L735 600 L735 792 L666 792 L666 999 L1048 999 L1048 792 L978 792 L978 600 L1108 600 L1259 792 L1167 792 L1167 999 L1648 999 L1648 775 L1530 775 L1305 525 Q1350 493 1409 403 L1540 224 L1681 224 L1681 0 L1368 0 L1255 178 Q1202 290 1188 312 Q1140 383 1090 401 Q1056 413 1006 413 L978 413 L978 224 L1095 224 L1095 0 L618 0 L618 224 L735 224 Z " />
<glyph glyph-name="afii10073" unicode="&#x437;" horiz-adv-x="1059" d="M73 0 L73 323 L290 323 L290 298 Q290 239 333 216 Q392 184 516 184 Q638 184 689 215 Q732 242 732 302 Q732 376 669 395 Q631 407 540 407 L307 407 L307 598 L527 598 Q688 598 688 703 Q688 816 503 816 Q413 816 357 782 Q319 758 319 701 L319 676 L102 676 L102 999 L296 999 L296 956 Q406 1027 563 1027 Q732 1027 833 963 Q952 887 952 732 Q952 647 912 595 Q890 568 846 542 Q905 517 934 490 Q996 430 996 312 Q996 107 850 31 Q738 -28 561 -28 Q372 -28 268 45 L268 0 L73 0 Z " />
<glyph glyph-name="afii10074" unicode="&#x438;" horiz-adv-x="1335" d="M203 224 L203 775 L63 775 L63 999 L584 999 L584 775 L455 775 L455 471 L879 765 L879 775 L749 775 L749 999 L1271 999 L1271 775 L1131 775 L1131 224 L1271 224 L1271 0 L749 0 L749 224 L879 224 L879 528 L455 234 L455 224 L584 224 L584 0 L63 0 L63 224 L203 224 Z " />
<glyph glyph-name="afii10075" unicode="&#x439;" horiz-adv-x="1335" d="M203 224 L203 775 L63 775 L63 999 L584 999 L584 775 L455 775 L455 471 L879 765 L879 775 L749 775 L749 999 L1271 999 L1271 775 L1131 775 L1131 224 L1271 224 L1271 0 L749 0 L749 224 L879 224 L879 528 L455 234 L455 224 L584 224 L584 0 L63 0 L63 224 L203 224 Z M319 1469 L481 1469 Q485 1401 502 1375 Q533 1329 667 1329 Q809 1329 837 1384 Q850 1409 853 1469 L1015 1469 Q1015 1317 989 1259 Q934 1136 667 1136 Q508 1136 422 1180 Q349 1217 329 1307 Q320 1351 319 1469 Z " />
<glyph glyph-name="afii10076" unicode="&#x43a;" horiz-adv-x="1241" d="M203 224 L203 775 L63 775 L63 999 L570 999 L570 775 L463 775 L463 610 L606 610 L769 775 L697 775 L697 999 L1180 999 L1180 775 L1062 775 L821 535 Q869 502 936 403 L1067 224 L1207 224 L1207 0 L874 0 L762 177 Q709 289 695 311 Q646 384 596 401 Q562 413 512 413 L463 413 L463 224 L593 224 L593 0 L63 0 L63 224 L203 224 Z " />
<glyph glyph-name="afii10077" unicode="&#x43b;" horiz-adv-x="1232" d="M101 775 L101 999 L1168 999 L1168 775 L1028 775 L1028 224 L1168 224 L1168 0 L639 0 L639 224 L768 224 L768 775 L486 775 L486 739 Q486 370 412 186 Q371 83 283 38 Q209 0 74 0 L-7 0 L9 224 L54 224 Q131 224 163 259 Q205 304 224 467 Q240 597 240 743 L240 775 L101 775 Z " />
<glyph glyph-name="afii10078" unicode="&#x43c;" horiz-adv-x="1604" d="M160 224 L220 775 L96 775 L96 999 L573 999 L802 371 L1030 999 L1508 999 L1508 775 L1384 775 L1444 224 L1583 224 L1583 0 L1095 0 L1095 224 L1189 224 L1147 700 L892 0 L711 0 L456 700 L414 224 L508 224 L508 0 L20 0 L20 224 L160 224 Z " />
<glyph glyph-name="afii10079" unicode="&#x43d;" horiz-adv-x="1341" d="M203 224 L203 775 L63 775 L63 999 L593 999 L593 775 L463 775 L463 616 L877 616 L877 775 L747 775 L747 999 L1277 999 L1277 775 L1137 775 L1137 224 L1277 224 L1277 0 L747 0 L747 224 L877 224 L877 415 L463 415 L463 224 L593 224 L593 0 L63 0 L63 224 L203 224 Z " />
<glyph glyph-name="afii10080" unicode="&#x43e;" horiz-adv-x="1218" d="M609 1028 Q847 1028 996 888 Q1151 743 1151 500 Q1151 256 996 111 Q848 -29 611 -29 Q370 -29 222 111 Q67 257 67 507 Q67 745 222 888 Q373 1028 609 1028 Z M609 804 Q478 804 401 715 Q331 636 331 504 Q331 364 401 284 Q478 195 610 195 Q740 195 817 284 Q887 364 887 500 Q887 637 817 715 Q738 804 609 804 Z " />
<glyph glyph-name="afii10081" unicode="&#x43f;" horiz-adv-x="1309" d="M203 224 L203 775 L63 775 L63 999 L1245 999 L1245 775 L1105 775 L1105 224 L1245 224 L1245 0 L728 0 L728 224 L845 224 L845 775 L463 775 L463 224 L580 224 L580 0 L63 0 L63 224 L203 224 Z " />
<glyph glyph-name="afii10082" unicode="&#x440;" horiz-adv-x="1282" d="M197 -198 L197 775 L57 775 L57 999 L430 999 L430 890 Q475 935 508 958 Q611 1028 753 1028 Q956 1028 1084 888 Q1215 744 1215 499 Q1215 255 1084 111 Q956 -29 756 -29 Q587 -29 457 86 L457 -198 L626 -198 L626 -422 L57 -422 L57 -198 L197 -198 Z M710 804 Q593 804 522 715 Q457 635 457 504 Q457 366 522 284 Q592 195 710 195 Q825 195 891 284 Q951 364 951 500 Q951 639 888 719 Q820 804 710 804 Z " />
<glyph glyph-name="afii10083" unicode="&#x441;" horiz-adv-x="1035" d="M889 315 L1022 140 Q853 -30 569 -30 Q334 -30 209 92 Q67 230 67 487 Q67 727 184 874 Q306 1028 519 1028 Q654 1028 758 953 L758 999 L953 999 L953 631 L736 631 L736 656 Q736 729 701 760 Q651 805 567 805 Q450 805 389 720 Q331 638 331 499 Q331 357 398 276 Q464 196 585 196 Q705 196 796 245 Q836 267 889 315 Z " />
<glyph glyph-name="afii10084" unicode="&#x442;" horiz-adv-x="1125" d="M432 224 L432 782 L268 782 L268 635 L44 635 L44 999 L1080 999 L1080 635 L856 635 L856 782 L692 782 L692 224 L880 224 L880 0 L244 0 L244 224 L432 224 Z " />
<glyph glyph-name="afii10085" unicode="&#x443;" horiz-adv-x="1122" d="M106 775 L16 775 L16 999 L510 999 L510 775 L382 775 L515 458 Q540 400 569 309 Q600 392 641 487 L767 775 L633 775 L633 999 L1131 999 L1131 775 L1032 775 L638 -63 Q580 -185 546 -245 Q469 -377 334 -407 Q269 -421 153 -422 L153 -198 Q246 -198 282 -179 Q335 -152 389 -37 L431 50 L106 775 Z " />
<glyph glyph-name="afii10086" unicode="&#x444;" horiz-adv-x="1638" d="M701 -254 L701 74 Q604 -29 463 -29 Q269 -29 164 116 Q67 250 67 495 Q67 736 160 874 Q262 1028 465 1028 Q603 1028 701 925 L701 1251 L587 1251 L587 1475 L938 1475 L938 921 Q1024 1028 1181 1028 Q1378 1028 1480 874 Q1572 735 1572 496 Q1572 250 1475 116 Q1371 -29 1175 -29 Q1032 -29 939 74 L939 -254 L1117 -254 L1117 -478 L524 -478 L524 -254 L701 -254 Z M701 456 L701 538 Q701 653 661 718 Q607 804 518 804 Q421 804 376 720 Q331 637 331 500 Q331 362 376 279 Q421 195 518 195 Q616 195 669 295 Q701 356 701 456 Z M939 538 L939 456 Q939 347 979 282 Q1031 195 1121 195 Q1218 195 1264 279 Q1308 362 1308 500 Q1308 637 1264 720 Q1218 804 1122 804 Q1025 804 971 705 Q939 646 939 538 Z " />
<glyph glyph-name="afii10087" unicode="&#x445;" horiz-adv-x="1196" d="M418 534 L192 775 L58 775 L58 999 L545 999 L545 806 L468 806 L626 634 L758 806 L681 806 L681 999 L1144 999 L1144 775 L1013 775 L759 499 L1016 224 L1158 224 L1158 0 L647 0 L647 206 L731 206 L555 396 L392 206 L474 206 L474 0 L14 0 L14 224 L135 224 L418 534 Z " />
<glyph glyph-name="afii10088" unicode="&#x446;" horiz-adv-x="1321" d="M203 224 L203 775 L63 775 L63 999 L584 999 L584 775 L463 775 L463 224 L855 224 L855 775 L733 775 L733 999 L1255 999 L1255 775 L1115 775 L1115 224 L1282 224 L1282 -324 L1068 -324 L1041 0 L63 0 L63 224 L203 224 Z " />
<glyph glyph-name="afii10089" unicode="&#x447;" horiz-adv-x="1247" d="M784 224 L784 371 Q668 313 500 313 Q244 313 169 467 Q131 545 131 734 L131 775 L17 775 L17 999 L512 999 L512 775 L391 775 L391 695 Q391 614 423 581 Q465 537 571 537 Q693 537 784 596 L784 775 L666 775 L666 999 L1184 999 L1184 775 L1044 775 L1044 224 L1184 224 L1184 0 L631 0 L631 224 L784 224 Z " />
<glyph glyph-name="afii10090" unicode="&#x448;" horiz-adv-x="1868" d="M203 224 L203 775 L63 775 L63 999 L578 999 L578 775 L463 775 L463 224 L804 224 L804 775 L689 775 L689 999 L1179 999 L1179 775 L1064 775 L1064 224 L1405 224 L1405 775 L1290 775 L1290 999 L1804 999 L1804 775 L1665 775 L1665 224 L1804 224 L1804 0 L63 0 L63 224 L203 224 Z " />
<glyph glyph-name="afii10091" unicode="&#x449;" horiz-adv-x="1871" d="M203 224 L203 775 L63 775 L63 999 L578 999 L578 775 L463 775 L463 224 L804 224 L804 775 L689 775 L689 999 L1179 999 L1179 775 L1064 775 L1064 224 L1405 224 L1405 775 L1290 775 L1290 999 L1804 999 L1804 775 L1665 775 L1665 224 L1832 224 L1832 -324 L1618 -324 L1591 0 L63 0 L63 224 L203 224 Z " />
<glyph glyph-name="afii10092" unicode="&#x44a;" horiz-adv-x="1416" d="M428 224 L428 775 L232 775 L232 658 L8 658 L8 999 L829 999 L829 775 L688 775 L688 660 L928 660 Q1164 660 1259 595 Q1378 512 1378 332 Q1378 132 1237 53 Q1143 0 928 0 L288 0 L288 224 L428 224 Z M688 207 L910 207 Q1013 207 1061 232 Q1114 259 1114 335 Q1114 417 1053 443 Q1005 463 910 463 L688 463 L688 207 Z " />
<glyph glyph-name="afii10093" unicode="&#x44b;" horiz-adv-x="1792" d="M203 224 L203 775 L63 775 L63 999 L604 999 L604 775 L463 775 L463 660 L703 660 Q939 660 1034 595 Q1153 512 1153 332 Q1153 132 1012 53 Q918 0 703 0 L63 0 L63 224 L203 224 Z M463 207 L685 207 Q788 207 836 232 Q889 259 889 335 Q889 417 828 443 Q780 463 685 463 L463 463 L463 207 Z M1325 224 L1325 775 L1195 775 L1195 999 L1725 999 L1725 775 L1585 775 L1585 224 L1725 224 L1725 0 L1195 0 L1195 224 L1325 224 Z " />
<glyph glyph-name="afii10094" unicode="&#x44c;" horiz-adv-x="1192" d="M203 224 L203 775 L63 775 L63 999 L604 999 L604 775 L463 775 L463 660 L703 660 Q939 660 1034 595 Q1153 512 1153 332 Q1153 132 1012 53 Q918 0 703 0 L63 0 L63 224 L203 224 Z M463 207 L685 207 Q788 207 836 232 Q889 259 889 335 Q889 417 828 443 Q780 463 685 463 L463 463 L463 207 Z " />
<glyph glyph-name="afii10095" unicode="&#x44d;" horiz-adv-x="1075" d="M73 0 L73 323 L290 323 L290 298 Q290 246 333 225 Q396 195 494 195 Q702 195 735 407 L305 407 L305 598 L734 598 Q721 665 689 711 Q624 805 499 805 Q411 805 356 770 Q319 747 319 693 L319 668 L102 668 L102 999 L296 999 L296 953 Q337 980 364 993 Q442 1028 548 1028 Q766 1028 889 874 Q1008 728 1008 486 Q1008 230 871 91 Q754 -27 535 -27 Q372 -27 268 45 L268 0 L73 0 Z " />
<glyph glyph-name="afii10096" unicode="&#x44e;" horiz-adv-x="1827" d="M203 224 L203 775 L63 775 L63 999 L593 999 L593 775 L463 775 L463 616 L716 616 Q740 743 809 835 Q952 1028 1233 1028 Q1466 1028 1610 889 Q1760 743 1760 500 Q1760 256 1610 110 Q1467 -29 1233 -29 Q1049 -29 922 57 Q745 175 712 415 L463 415 L463 224 L593 224 L593 0 L63 0 L63 224 L203 224 Z M1233 804 Q1108 804 1035 717 Q969 637 969 505 Q969 364 1035 283 Q1107 195 1233 195 Q1358 195 1430 283 Q1496 364 1496 500 Q1496 637 1430 717 Q1357 804 1233 804 Z " />
<glyph glyph-name="afii10097" unicode="&#x44f;" horiz-adv-x="1253" d="M789 357 L686 357 Q601 357 559 312 Q521 270 458 156 L372 0 L34 0 L34 224 L209 224 L283 328 Q312 369 339 391 Q227 420 177 465 Q86 546 86 677 Q86 866 218 945 Q309 999 516 999 L1189 999 L1189 775 L1049 775 L1049 224 L1189 224 L1189 0 L676 0 L676 224 L789 224 L789 357 Z M789 548 L789 795 L549 795 Q435 795 395 766 Q350 733 350 671 Q350 548 541 548 L789 548 Z " />
<glyph glyph-name="uni0450" unicode="&#x450;" horiz-adv-x="1164" d="M1100 413 L336 413 Q351 337 383 294 Q455 195 610 195 Q731 195 846 242 Q893 261 970 304 L1088 110 Q986 50 912 23 Q765 -31 607 -31 Q357 -31 212 111 Q63 257 63 500 Q63 745 211 891 Q351 1028 587 1028 Q803 1028 937 903 Q1057 792 1086 604 Q1098 529 1100 413 Z M824 612 Q783 813 583 813 Q389 813 339 612 L824 612 Z M584 1137 L279 1487 L582 1487 L777 1137 L584 1137 Z " />
<glyph glyph-name="afii10071" unicode="&#x451;" horiz-adv-x="1164" d="M1100 413 L336 413 Q351 337 383 294 Q455 195 610 195 Q731 195 846 242 Q893 261 970 304 L1088 110 Q986 50 912 23 Q765 -31 607 -31 Q357 -31 212 111 Q63 257 63 500 Q63 745 211 891 Q351 1028 587 1028 Q803 1028 937 903 Q1057 792 1086 604 Q1098 529 1100 413 Z M824 612 Q783 813 583 813 Q389 813 339 612 L824 612 Z M294 1162 L294 1409 L523 1409 L523 1162 L294 1162 Z M661 1162 L661 1409 L890 1409 L890 1162 L661 1162 Z " />
<glyph glyph-name="afii10099" unicode="&#x452;" horiz-adv-x="1268" d="M198 224 L198 1086 L24 1086 L24 1212 L198 1212 L198 1285 L58 1285 L58 1475 L458 1475 L458 1212 L767 1212 L767 1086 L458 1086 L458 890 Q528 946 580 975 Q677 1028 788 1028 Q979 1028 1052 895 Q1106 797 1106 576 L1106 30 Q1106 -139 1077 -218 Q1023 -369 843 -407 Q793 -417 687 -422 L687 -198 Q772 -194 803 -164 Q846 -122 846 -1 L846 589 Q846 680 827 725 Q798 796 717 796 Q640 796 554 736 Q525 715 458 652 L458 224 L586 224 L586 0 L58 0 L58 224 L198 224 Z " />
<glyph glyph-name="afii10100" unicode="&#x453;" horiz-adv-x="985" d="M203 224 L203 775 L63 775 L63 999 L966 999 L966 635 L742 635 L742 775 L463 775 L463 224 L648 224 L648 0 L63 0 L63 224 L203 224 Z M377 1137 L576 1487 L879 1487 L571 1137 L377 1137 Z " />
<glyph glyph-name="afii10101" unicode="&#x454;" horiz-adv-x="1055" d="M779 591 L779 400 L343 400 Q364 317 401 275 Q471 196 596 196 Q719 196 813 245 Q856 268 909 315 L1042 140 Q869 -30 579 -30 Q341 -30 211 92 Q67 229 67 487 Q67 727 186 874 Q309 1028 527 1028 Q668 1028 779 953 L779 999 L973 999 L973 668 L756 668 L756 693 Q756 747 719 770 Q664 805 575 805 Q386 805 339 591 L779 591 Z " />
<glyph glyph-name="afii10102" unicode="&#x455;" horiz-adv-x="1027" d="M83 0 L83 354 L300 354 L300 319 Q300 272 318 248 Q372 178 545 178 Q635 178 678 208 Q719 238 719 286 Q719 328 671 353 Q645 367 475 397 Q256 436 169 503 Q78 573 78 710 Q78 857 179 944 Q276 1028 443 1028 Q549 1028 624 996 Q653 983 700 953 L700 999 L895 999 L895 679 L678 679 L678 692 Q678 747 633 779 Q574 822 477 822 Q333 822 333 730 Q333 685 395 659 Q425 647 571 617 Q793 572 863 520 Q965 443 965 293 Q965 142 858 54 Q756 -29 564 -29 Q408 -29 278 46 L278 0 L83 0 Z " />
<glyph glyph-name="afii10103" unicode="&#x456;" horiz-adv-x="650" d="M214 224 L214 775 L72 775 L72 999 L474 999 L474 224 L613 224 L613 0 L59 0 L59 224 L214 224 Z M210 1136 L210 1413 L477 1413 L477 1136 L210 1136 Z " />
<glyph glyph-name="afii10104" unicode="&#x457;" horiz-adv-x="650" d="M214 224 L214 775 L73 775 L73 999 L474 999 L474 224 L614 224 L614 0 L59 0 L59 224 L214 224 Z M27 1162 L27 1409 L256 1409 L256 1162 L27 1162 Z M394 1162 L394 1409 L623 1409 L623 1162 L394 1162 Z " />
<glyph glyph-name="afii10105" unicode="&#x458;" horiz-adv-x="643" d="M81 775 L81 999 L480 999 L480 19 Q480 -145 451 -223 Q396 -372 217 -408 Q169 -417 61 -422 L61 -198 Q147 -194 177 -166 Q220 -128 220 -11 L220 775 L81 775 Z M216 1136 L216 1413 L483 1413 L483 1136 L216 1136 Z " />
<glyph glyph-name="afii10106" unicode="&#x459;" horiz-adv-x="1757" d="M769 224 L769 775 L486 775 L486 739 Q486 370 412 185 Q371 83 283 38 Q209 0 74 0 L-7 0 L9 224 L54 224 Q131 224 163 259 Q205 305 224 468 Q240 597 240 743 L240 775 L101 775 L101 999 L1170 999 L1170 775 L1029 775 L1029 660 L1269 660 Q1505 660 1600 595 Q1719 512 1719 333 Q1719 132 1578 53 Q1484 0 1269 0 L639 0 L639 224 L769 224 Z M1029 207 L1251 207 Q1353 207 1402 232 Q1455 259 1455 335 Q1455 417 1393 443 Q1346 463 1251 463 L1029 463 L1029 207 Z " />
<glyph glyph-name="afii10107" unicode="&#x45a;" horiz-adv-x="1866" d="M203 224 L203 775 L63 775 L63 999 L593 999 L593 775 L463 775 L463 620 L877 620 L877 775 L747 775 L747 999 L1278 999 L1278 775 L1137 775 L1137 638 L1377 638 Q1614 638 1707 577 Q1827 498 1827 327 Q1827 131 1687 53 Q1592 0 1377 0 L747 0 L747 224 L877 224 L877 419 L463 419 L463 224 L593 224 L593 0 L63 0 L63 224 L203 224 Z M1137 207 L1359 207 Q1461 207 1510 231 Q1563 258 1563 331 Q1563 403 1501 426 Q1454 444 1359 444 L1137 444 L1137 207 Z " />
<glyph glyph-name="afii10108" unicode="&#x45b;" horiz-adv-x="1284" d="M198 224 L198 1086 L24 1086 L24 1212 L198 1212 L198 1285 L58 1285 L58 1475 L458 1475 L458 1212 L767 1212 L767 1086 L458 1086 L458 890 Q527 945 580 975 Q677 1028 788 1028 Q979 1028 1052 895 Q1106 797 1106 576 L1106 224 L1243 224 L1243 0 L725 0 L725 224 L846 224 L846 589 Q846 680 827 725 Q798 796 717 796 Q640 796 554 736 Q525 715 458 652 L458 224 L586 224 L586 0 L58 0 L58 224 L198 224 Z " />
<glyph glyph-name="afii10109" unicode="&#x45c;" horiz-adv-x="1241" d="M203 224 L203 775 L63 775 L63 999 L570 999 L570 775 L463 775 L463 610 L606 610 L769 775 L697 775 L697 999 L1180 999 L1180 775 L1062 775 L821 535 Q869 502 936 403 L1067 224 L1207 224 L1207 0 L874 0 L762 177 Q709 289 695 311 Q646 384 596 401 Q562 413 512 413 L463 413 L463 224 L593 224 L593 0 L63 0 L63 224 L203 224 Z M478 1137 L677 1487 L980 1487 L671 1137 L478 1137 Z " />
<glyph glyph-name="uni045D" unicode="&#x45d;" horiz-adv-x="1335" d="M203 224 L203 775 L63 775 L63 999 L584 999 L584 775 L455 775 L455 471 L879 765 L879 775 L749 775 L749 999 L1271 999 L1271 775 L1131 775 L1131 224 L1271 224 L1271 0 L749 0 L749 224 L879 224 L879 528 L455 234 L455 224 L584 224 L584 0 L63 0 L63 224 L203 224 Z M645 1137 L340 1487 L643 1487 L839 1137 L645 1137 Z " />
<glyph glyph-name="afii10110" unicode="&#x45e;" horiz-adv-x="1122" d="M106 775 L16 775 L16 999 L510 999 L510 775 L382 775 L515 458 Q540 400 569 309 Q600 392 641 487 L767 775 L633 775 L633 999 L1131 999 L1131 775 L1032 775 L638 -63 Q580 -185 546 -245 Q469 -377 334 -407 Q269 -421 153 -422 L153 -198 Q246 -198 282 -179 Q335 -152 389 -37 L431 50 L106 775 Z M213 1469 L376 1469 Q380 1401 397 1375 Q427 1329 561 1329 Q703 1329 731 1384 Q744 1409 747 1469 L910 1469 Q909 1317 883 1259 Q829 1136 562 1136 Q402 1136 316 1180 Q244 1217 224 1307 Q214 1351 213 1469 Z " />
<glyph glyph-name="afii10193" unicode="&#x45f;" horiz-adv-x="1319" d="M203 224 L203 775 L63 775 L63 999 L584 999 L584 775 L463 775 L463 224 L855 224 L855 775 L733 775 L733 999 L1255 999 L1255 775 L1115 775 L1115 224 L1255 224 L1255 0 L788 0 L761 -324 L556 -324 L530 0 L63 0 L63 224 L203 224 Z " />
<glyph glyph-name="uni0462" unicode="&#x462;" horiz-adv-x="1615" d="M485 224 L485 1251 L270 1251 L270 1062 L36 1062 L36 1475 L1244 1475 L1244 1099 L1010 1099 L1010 1251 L755 1251 L755 897 L1011 897 Q1239 897 1371 812 Q1551 696 1551 449 Q1551 201 1371 85 Q1239 0 1011 0 L345 0 L345 224 L485 224 Z M755 224 L951 224 Q1112 224 1182 267 Q1277 324 1277 454 Q1277 593 1166 649 Q1099 683 951 683 L755 683 L755 224 Z " />
<glyph glyph-name="uni0463" unicode="&#x463;" horiz-adv-x="1232" d="M143 0 L143 1086 L-31 1086 L-31 1212 L143 1212 L143 1284 L3 1284 L3 1475 L403 1475 L403 1212 L712 1212 L712 1086 L403 1086 L403 913 Q443 948 469 965 Q566 1028 700 1028 Q902 1028 1030 888 Q1161 744 1161 499 Q1161 255 1030 111 Q902 -29 698 -29 Q510 -29 376 109 L374 0 L143 0 Z M656 804 Q539 804 468 715 Q403 635 403 504 Q403 366 468 284 Q538 195 656 195 Q771 195 837 284 Q897 364 897 500 Q897 639 834 719 Q766 804 656 804 Z " />
<glyph glyph-name="afii10050" unicode="&#x490;" horiz-adv-x="1175" d="M216 224 L216 1251 L75 1251 L75 1475 L872 1475 L915 1835 L1141 1835 L1141 1062 L907 1062 L907 1251 L486 1251 L486 224 L686 224 L686 0 L75 0 L75 224 L216 224 Z " />
<glyph glyph-name="afii10098" unicode="&#x491;" horiz-adv-x="985" d="M203 224 L203 775 L63 775 L63 999 L708 999 L751 1322 L966 1322 L966 635 L742 635 L742 775 L463 775 L463 224 L648 224 L648 0 L63 0 L63 224 L203 224 Z " />
<glyph glyph-name="uni0492" unicode="&#x492;" horiz-adv-x="1175" d="M216 224 L216 686 L7 686 L7 880 L216 880 L216 1251 L76 1251 L76 1475 L1141 1475 L1141 1062 L907 1062 L907 1251 L486 1251 L486 880 L787 880 L787 686 L486 686 L486 224 L687 224 L687 0 L76 0 L76 224 L216 224 Z " />
<glyph glyph-name="uni0493" unicode="&#x493;" horiz-adv-x="985" d="M203 224 L203 399 L23 399 L23 560 L203 560 L203 775 L63 775 L63 999 L967 999 L967 658 L743 658 L743 775 L463 775 L463 560 L718 560 L718 399 L463 399 L463 224 L648 224 L648 0 L63 0 L63 224 L203 224 Z " />
<glyph glyph-name="uni0496" unicode="&#x496;" horiz-adv-x="1957" d="M851 224 L851 659 L813 659 Q712 659 650 595 Q593 537 525 382 L356 0 L11 0 L11 224 L152 224 L286 489 Q357 630 393 685 Q433 746 492 787 L179 1251 L69 1251 L69 1475 L571 1475 L571 1268 L453 1268 L717 871 L851 871 L851 1268 L748 1268 L748 1475 L1208 1475 L1208 1268 L1106 1268 L1106 871 L1239 871 L1504 1268 L1385 1268 L1385 1475 L1888 1475 L1888 1251 L1778 1251 L1464 787 Q1523 746 1563 685 Q1602 626 1671 489 L1805 224 L1945 224 L1945 -360 L1719 -360 L1695 0 L1600 0 L1431 382 Q1356 554 1289 611 Q1234 659 1144 659 L1106 659 L1106 224 L1261 224 L1261 0 L695 0 L695 224 L851 224 Z " />
<glyph glyph-name="uni0497" unicode="&#x497;" horiz-adv-x="1714" d="M735 224 L735 413 L708 413 Q616 413 565 361 Q532 328 509 284 Q505 277 458 178 L345 0 L33 0 L33 224 L173 224 L304 403 Q363 493 408 525 L183 775 L65 775 L65 999 L546 999 L546 792 L454 792 L605 600 L735 600 L735 792 L666 792 L666 999 L1048 999 L1048 792 L978 792 L978 600 L1108 600 L1259 792 L1167 792 L1167 999 L1648 999 L1648 775 L1530 775 L1305 525 Q1350 493 1409 403 L1540 224 L1704 224 L1704 -324 L1489 -324 L1463 0 L1368 0 L1255 178 Q1202 290 1188 312 Q1140 383 1090 401 Q1056 413 1006 413 L978 413 L978 224 L1095 224 L1095 0 L618 0 L618 224 L735 224 Z " />
<glyph glyph-name="uni0498" unicode="&#x498;" horiz-adv-x="1299" d="M104 0 L104 460 L338 460 L338 431 Q338 338 398 281 Q490 194 661 194 Q811 194 885 259 Q958 322 958 437 Q958 576 851 628 Q778 664 614 664 L375 664 L375 876 L578 876 Q736 876 811 923 Q902 981 902 1097 Q902 1281 658 1281 Q512 1281 423 1192 Q366 1135 366 1053 L366 1035 L132 1035 L132 1475 L349 1475 L349 1413 Q405 1443 446 1459 Q566 1506 713 1506 Q930 1506 1055 1407 Q1175 1311 1175 1121 Q1175 986 1115 899 Q1084 853 1018 809 Q1094 776 1138 726 Q1231 624 1231 441 Q1231 134 983 22 Q892 -19 763 -29 L733 -84 Q812 -93 851 -115 Q941 -164 941 -278 Q941 -398 849 -455 Q779 -499 658 -499 Q527 -499 393 -459 L393 -270 Q556 -334 653 -334 Q740 -334 740 -277 Q740 -239 700 -229 Q678 -223 634 -223 Q627 -223 570 -226 L540 -137 L597 -25 Q438 -6 321 62 L321 0 L104 0 Z " />
<glyph glyph-name="uni0499" unicode="&#x499;" horiz-adv-x="1068" d="M73 0 L73 323 L290 323 L290 298 Q290 239 333 216 Q393 184 520 184 Q645 184 697 215 Q741 242 741 302 Q741 376 676 395 Q638 407 545 407 L307 407 L307 598 L532 598 Q697 598 697 703 Q697 816 507 816 Q415 816 358 782 Q319 758 319 701 L319 676 L102 676 L102 999 L296 999 L296 956 Q408 1027 568 1027 Q738 1027 840 963 Q908 920 940 843 Q961 791 961 732 Q961 647 919 595 Q897 568 851 542 Q912 517 941 490 Q1005 431 1005 309 Q1005 92 821 14 Q748 -17 629 -26 L597 -84 Q675 -93 716 -115 Q805 -164 805 -278 Q805 -397 713 -455 Q643 -499 522 -499 Q392 -499 257 -459 L257 -270 Q424 -334 517 -334 Q604 -334 604 -277 Q604 -239 564 -229 Q542 -223 498 -223 Q488 -223 463 -224 Q447 -225 435 -226 L405 -136 L463 -21 Q393 -11 359 0 Q312 14 267 45 L267 0 L73 0 Z " />
<glyph glyph-name="uni049A" unicode="&#x49a;" horiz-adv-x="1385" d="M216 224 L216 1251 L75 1251 L75 1475 L642 1475 L642 1251 L486 1251 L486 871 L677 871 L924 1251 L802 1251 L802 1475 L1334 1475 L1334 1251 L1208 1251 L901 787 Q960 745 998 686 Q1037 625 1104 489 L1235 224 L1399 224 L1399 -360 L1172 -360 L1148 0 L1018 0 L846 401 Q782 550 720 607 Q664 659 567 659 L486 659 L486 224 L642 224 L642 0 L75 0 L75 224 L216 224 Z " />
<glyph glyph-name="uni049B" unicode="&#x49b;" horiz-adv-x="1241" d="M203 224 L203 775 L63 775 L63 999 L570 999 L570 775 L463 775 L463 610 L606 610 L769 775 L697 775 L697 999 L1180 999 L1180 775 L1062 775 L821 535 Q869 502 936 403 L1067 224 L1230 224 L1230 -324 L1016 -324 L989 0 L874 0 L762 177 Q709 289 695 311 Q646 384 596 401 Q562 413 512 413 L463 413 L463 224 L593 224 L593 0 L63 0 L63 224 L203 224 Z " />
<glyph glyph-name="uni049C" unicode="&#x49c;" horiz-adv-x="1435" d="M216 224 L216 1251 L75 1251 L75 1475 L642 1475 L642 1251 L486 1251 L486 871 L603 871 L603 1093 L756 1093 L756 918 L974 1251 L852 1251 L852 1475 L1384 1475 L1384 1251 L1258 1251 L951 787 Q1009 746 1048 686 Q1086 627 1154 490 L1285 224 L1425 224 L1425 0 L1079 0 L906 401 Q859 512 815 570 Q794 597 756 628 L756 405 L603 405 L603 659 L486 659 L486 224 L642 224 L642 0 L75 0 L75 224 L216 224 Z " />
<glyph glyph-name="uni049D" unicode="&#x49d;" horiz-adv-x="1299" d="M203 224 L203 775 L63 775 L63 999 L545 999 L545 775 L463 775 L463 611 L566 611 L566 769 L691 769 L691 638 L827 775 L755 775 L755 999 L1238 999 L1238 775 L1120 775 L879 536 Q927 503 994 404 L1125 224 L1265 224 L1265 0 L932 0 L820 177 Q764 298 737 335 Q716 363 691 383 L691 191 L566 191 L566 414 L463 414 L463 224 L545 224 L545 0 L63 0 L63 224 L203 224 Z " />
<glyph glyph-name="uni04A2" unicode="&#x4a2;" horiz-adv-x="1507" d="M216 224 L216 1251 L75 1251 L75 1475 L642 1475 L642 1251 L486 1251 L486 885 L1021 885 L1021 1251 L863 1251 L863 1475 L1432 1475 L1432 1251 L1291 1251 L1291 224 L1459 224 L1459 -360 L1231 -360 L1207 0 L863 0 L863 224 L1021 224 L1021 661 L486 661 L486 224 L642 224 L642 0 L75 0 L75 224 L216 224 Z " />
<glyph glyph-name="uni04A3" unicode="&#x4a3;" horiz-adv-x="1343" d="M203 224 L203 775 L63 775 L63 999 L593 999 L593 775 L463 775 L463 616 L877 616 L877 775 L747 775 L747 999 L1277 999 L1277 775 L1137 775 L1137 224 L1304 224 L1304 -324 L1089 -324 L1063 0 L747 0 L747 224 L877 224 L877 415 L463 415 L463 224 L593 224 L593 0 L63 0 L63 224 L203 224 Z " />
<glyph glyph-name="uni04AA" unicode="&#x4aa;" horiz-adv-x="1469" d="M1227 394 L1386 206 Q1264 76 1115 21 Q999 -21 842 -30 L812 -85 Q891 -93 930 -115 Q1020 -164 1020 -278 Q1020 -398 928 -455 Q858 -499 737 -499 Q603 -499 472 -459 L472 -270 Q635 -334 732 -334 Q819 -334 819 -276 Q819 -238 779 -228 Q758 -222 713 -222 Q709 -222 649 -226 L619 -137 L677 -24 Q472 1 342 103 Q87 303 87 724 Q87 1078 278 1294 Q465 1506 777 1506 Q962 1506 1125 1413 L1125 1475 L1342 1475 L1342 1021 L1108 1021 L1108 1039 Q1108 1120 1051 1178 Q961 1271 793 1271 Q586 1271 471 1115 Q361 967 361 730 Q361 492 482 345 Q592 211 805 211 Q965 211 1093 287 Q1145 318 1227 394 Z " />
<glyph glyph-name="uni04AB" unicode="&#x4ab;" horiz-adv-x="1035" d="M889 315 L1022 140 Q934 51 824 11 Q740 -19 623 -29 L593 -84 Q671 -93 711 -115 Q801 -164 801 -278 Q801 -398 710 -455 Q639 -499 518 -499 Q384 -499 253 -459 L253 -270 Q415 -334 513 -334 Q600 -334 600 -277 Q600 -239 560 -229 Q538 -223 494 -223 Q486 -223 447 -225 L430 -226 L400 -137 L459 -22 Q341 -5 260 50 Q67 181 67 487 Q67 727 184 874 Q306 1028 519 1028 Q654 1028 759 953 L759 999 L953 999 L953 631 L736 631 L736 656 Q736 729 701 760 Q651 805 567 805 Q450 805 389 720 Q331 637 331 499 Q331 356 398 275 Q464 195 585 195 Q705 195 796 245 Q837 267 889 315 Z " />
<glyph glyph-name="uni04AE" unicode="&#x4ae;" horiz-adv-x="1294" d="M507 224 L507 673 L122 1251 L16 1251 L16 1475 L558 1475 L558 1251 L440 1251 L658 896 L876 1251 L759 1251 L759 1475 L1271 1475 L1271 1251 L1157 1251 L777 669 L777 224 L967 224 L967 0 L318 0 L318 224 L507 224 Z " />
<glyph glyph-name="uni04AF" unicode="&#x4af;" horiz-adv-x="1147" d="M436 -198 L436 4 L102 775 L-18 775 L-18 999 L492 999 L492 775 L374 775 L565 295 L748 775 L633 775 L633 999 L1140 999 L1140 775 L1020 775 L696 4 L696 -198 L841 -198 L841 -422 L295 -422 L295 -198 L436 -198 Z " />
<glyph glyph-name="uni04B0" unicode="&#x4b0;" horiz-adv-x="1294" d="M507 224 L507 476 L267 476 L267 673 L507 673 L122 1251 L16 1251 L16 1475 L559 1475 L559 1251 L440 1251 L659 896 L876 1251 L759 1251 L759 1475 L1272 1475 L1272 1251 L1158 1251 L780 673 L1020 673 L1020 476 L777 476 L777 224 L967 224 L967 0 L318 0 L318 224 L507 224 Z " />
<glyph glyph-name="uni04B1" unicode="&#x4b1;" horiz-adv-x="1147" d="M436 -198 L436 0 L184 0 L184 159 L369 159 L102 775 L-18 775 L-18 999 L492 999 L492 775 L374 775 L565 295 L748 775 L633 775 L633 999 L1140 999 L1140 775 L1020 775 L761 159 L947 159 L947 0 L696 0 L696 -198 L841 -198 L841 -422 L295 -422 L295 -198 L436 -198 Z " />
</font>
</svg>
